<?xml version="1.0" encoding="UTF-8" standalone="no"?> <svg xmlns="http://www.w3.org/2000/svg" xmlns:xlink="http://www.w3.org/1999/xlink" version="1.1"><metadata> Created by FontForge 20170731 at Wed Nov 5 17:23:37 2014 By Aleksey,,, Copyright (c) 2009 Linotype GmbH, www.linotype.com. All rights reserved. This font software may not be reproduced, modified, disclosed or transferred without the express written approval of Linotype GmbH. Basic Commercial is a trademark of Linotype GmbH and may be registered in certain jurisdictions. This typeface is original artwork of Linotype Design Studio. The design may be protected in certain jurisdictions. </metadata><defs><font id="BasicCommercialSRW04-Roman"><glyph glyph-name="IJ" unicode="IJ" d="M82 681q0 13 9 22t22 9h32q13 0 22 -9t9 -22v-650q0 -13 -9 -22t-22 -9h-32q-13 0 -22 9t-9 22v650zM255 48q0 17 8 25t19 8q13 0 23 -2.5t33 -2.5q36 0 58 9t34 26.5t16.5 42t4.5 56.5v471q0 13 9 22t22 9h32q13 0 22 -9t9 -22v-527q0 -33 -11.5 -64t-35.5 -55 t-60.5 -38.5t-86.5 -14.5q-53 0 -74.5 10.5t-21.5 34.5v21z"></glyph><glyph glyph-name="ij" unicode="ij" d="M92 618q-13 0 -22 9t-9 22v32q0 13 9 22t22 9h20q13 0 22 -9t9 -22v-32q0 -13 -9 -22t-22 -9h-20zM61 447q0 13 9 22t22 9h20q13 0 22 -9t9 -22v-416q0 -13 -9 -22t-22 -9h-20q-13 0 -22 9t-9 22v416zM287 618q-13 0 -22 9t-9 22v32q0 13 9 22t22 9h20q13 0 22 -9t9 -22 v-32q0 -13 -9 -22t-22 -9h-20zM256 447q0 13 9 22t22 9h20q13 0 22 -9t9 -22v-539q0 -32 -4 -58.5t-16.5 -45.5t-35 -29.5t-59.5 -10.5q-35 0 -44.5 7.5t-9.5 23.5v20q0 6 5 13.5t17 7.5q4 0 7.5 -0.5t11.5 -0.5q18 0 32 12t14 42v558z"></glyph><glyph glyph-name="napostrophe" unicode="&quot;n" d="M143 447q0 13 9 22t22 9h20q13 0 22 -9t9 -22v-33h2q24 36 58 56t82 20q36 0 67 -8.5t53.5 -29t35.5 -54t13 -83.5v-284q0 -13 -9 -22t-22 -9h-20q-13 0 -22 9t-9 22v276q0 31 -7.5 51.5t-21 33t-32 17.5t-40.5 5q-57 0 -92.5 -34t-35.5 -92v-257q0 -13 -9 -22t-22 -9 h-20q-13 0 -22 9t-9 22v416zM35 444q-8 0 -13.5 7t-2.5 15q10 35 13.5 65.5t3.5 67.5h-11q-13 0 -22 9t-9 22v51q0 13 9 22t22 9h40q13 0 22 -9t9 -22v-82q0 -9 -2 -24t-5.5 -33.5t-8.5 -38.5t-12 -38q-4 -10 -9 -15.5t-15 -5.5h-9z"></glyph><glyph glyph-name="uniFB01" unicode="fi" d="M86 408h-48q-13 0 -22 9t-9 22v8q0 13 9 22t22 9h48v85q0 79 32 114t101 35q23 0 37.5 -5t14.5 -25v-8q0 -11 -6 -19t-19 -8q-5 0 -9 0.5t-11 0.5q-10 0 -20 -2t-18.5 -9t-14 -20.5t-5.5 -35.5v-103h58q13 0 22 -9t9 -22v-8q0 -13 -9 -22t-22 -9h-58v-377q0 -13 -9 -22 t-22 -9h-20q-13 0 -22 9t-9 22v377zM351 618q-13 0 -22 9t-9 22v32q0 13 9 22t22 9h20q13 0 22 -9t9 -22v-32q0 -13 -9 -22t-22 -9h-20zM320 447q0 13 9 22t22 9h20q13 0 22 -9t9 -22v-416q0 -13 -9 -22t-22 -9h-20q-13 0 -22 9t-9 22v416z"></glyph><glyph glyph-name="uniFB02" unicode="fl" d="M86 408h-48q-13 0 -22 9t-9 22v8q0 13 9 22t22 9h48v85q0 79 32 114t101 35q23 0 37.5 -5t14.5 -25v-8q0 -11 -6 -19t-19 -8q-5 0 -9 0.5t-11 0.5q-10 0 -20 -2t-18.5 -9t-14 -20.5t-5.5 -35.5v-103h58q13 0 22 -9t9 -22v-8q0 -13 -9 -22t-22 -9h-58v-377q0 -13 -9 -22 t-22 -9h-20q-13 0 -22 9t-9 22v377zM320 681q0 13 9 22t22 9h20q13 0 22 -9t9 -22v-650q0 -13 -9 -22t-22 -9h-20q-13 0 -22 9t-9 22v650z"></glyph><glyph glyph-name=".notdef" d="M0 687q0 13 9 22t22 9h450q13 0 22 -9t9 -22v-656q0 -13 -9 -22t-22 -9h-450q-13 0 -22 9t-9 22v656zM462 50v617h-412v-617h412zM245 234q-13 0 -17.5 6.5t-4.5 15.5v3q2 50 13 73q7 13 18 27.5t28 31.5q16 15 26 26.5t15 21t7 18t2 17.5q0 36 -22.5 60.5t-53.5 24.5 q-27 0 -48 -16.5t-30 -54.5q-2 -10 -6.5 -16.5t-15.5 -4.5l-8 1q-14 2 -18.5 9t-2.5 17q11 59 46.5 87t85.5 28q54 0 89 -35.5t35 -95.5q0 -32 -12.5 -58.5t-50.5 -61.5q-37 -33 -43 -52q-4 -15 -6 -50q0 -9 -5.5 -15.5t-16.5 -6.5h-4zM222 157q0 15 8 21t19 6h2q11 0 19 -6 t8 -21v-13q0 -15 -8 -21t-19 -6h-2q-11 0 -19 6t-8 21v13z"></glyph><glyph glyph-name="glyph1"></glyph><glyph glyph-name="glyph1"></glyph><glyph glyph-name="uni000D" unicode="&#13;"></glyph><glyph glyph-name="space" unicode=" "></glyph><glyph glyph-name="exclam" unicode="!" d="M110 386q-2 12 -2.5 31t-0.5 31v233q0 17 9 24t22 7h20q13 0 22 -7t9 -24v-233q0 -12 -0.5 -31t-2.5 -31l-21 -223q0 -6 -5 -11t-11 -5q-8 0 -13 5t-5 11zM104 63q0 17 9 24t22 7h26q13 0 22 -7t9 -24v-32q0 -17 -9 -24t-22 -7h-26q-13 0 -22 7t-9 24v32z"></glyph><glyph glyph-name="quotedbl" unicode="&quot;" d="M131 444q-31 0 -31 33v202q0 33 31 33h2q31 0 31 -33v-202q0 -33 -31 -33h-2zM256 444q-31 0 -31 33v202q0 33 31 33h2q31 0 31 -33v-202q0 -33 -31 -33h-2z"></glyph><glyph glyph-name="numbersign" unicode="#" d="M130 213h-74q-11 0 -19.5 8.5t-8.5 19.5v2q0 11 8.5 19.5t19.5 8.5h82l20 138h-74q-11 0 -19.5 8.5t-8.5 19.5v2q0 11 8.5 19.5t19.5 8.5h82l26 185q5 28 32 28h6q12 0 22 -8t8 -20l-26 -185h124l26 185q5 28 32 28h6q12 0 22 -8t8 -20l-26 -185h74q11 0 19.5 -8.5 t8.5 -19.5v-2q0 -11 -8.5 -19.5t-19.5 -8.5h-82l-20 -138h74q11 0 19.5 -8.5t8.5 -19.5v-2q0 -11 -8.5 -19.5t-19.5 -8.5h-82l-26 -185q-2 -14 -12.5 -21t-23.5 -7h-6q-12 0 -20 8t-6 20l26 185h-124l-26 -185q-2 -14 -12.5 -21t-23.5 -7h-6q-12 0 -20 8t-6 20zM330 271 l20 138h-124l-20 -138h124z"></glyph><glyph glyph-name="dollar" unicode="$" d="M22 152q-5 11 -1 22t21 14l33 6q20 4 27 -2t14 -22q19 -42 54 -70t84 -30v239q-40 14 -75.5 30.5t-62 40t-42 56.5t-15.5 80q0 37 17.5 68t45.5 53t62.5 34.5t69.5 14.5v75q0 17 9 24t22 7h4q13 0 21 -7t8 -24v-75q32 -2 63 -10.5t57 -25t46 -40.5t31 -55q4 -11 0 -20.5 t-20 -11.5l-27 -2q-23 -2 -32 5t-17 21q-16 27 -41.5 44t-59.5 19v-218l39 -16q37 -15 71 -31t59.5 -37t40.5 -50t15 -70q0 -51 -17.5 -87.5t-47.5 -60t-70.5 -34.5t-86.5 -12v-86q0 -17 -9 -24t-22 -7h-5q-13 0 -22 7t-9 24v86q-80 2 -143 43t-89 115zM254 610 q-20 -1 -38 -7.5t-32 -18t-22.5 -28.5t-8.5 -38q0 -23 9 -39.5t23 -28.5t32.5 -21t36.5 -16v197zM318 70q25 1 48.5 8.5t42 21t29.5 33.5t11 46q0 25 -13.5 42.5t-33 30t-42.5 21.5t-42 17v-220z"></glyph><glyph glyph-name="percent" unicode="%" d="M664 684q9 16 17 22t19 6h23q14 0 15 -8t-10 -28l-393 -680q-8 -12 -15.5 -20t-21.5 -8h-23q-11 0 -14 6.5t5 21.5zM269 330q-36 0 -65.5 12.5t-51.5 35.5t-34 56t-12 74t12 74t34 56t51.5 35.5t65.5 12.5t65.5 -12.5t51.5 -35.5t34 -56t12 -74t-12 -74t-34 -56 t-51.5 -35.5t-65.5 -12.5zM269 394q23 0 39.5 9t27 25t15.5 36.5t5 43.5q0 22 -5 43t-15.5 36.5t-27 25t-39.5 9.5t-39.5 -9.5t-27 -25t-15.5 -36.5t-5 -43q0 -23 5 -43.5t15.5 -36.5t27 -25t39.5 -9zM568 172q0 41 12 74t34 56t51.5 35.5t65.5 12.5t65.5 -12.5t51.5 -35.5 t34 -56t12 -74t-12 -74t-34 -56t-51.5 -35.5t-65.5 -12.5t-65.5 12.5t-51.5 35.5t-34 56t-12 74zM644 172q0 -23 5 -43.5t15.5 -36.5t27 -25t39.5 -9t39.5 9t27 25t15.5 36.5t5 43.5q0 22 -5 43t-15.5 36.5t-27 25t-39.5 9.5t-39.5 -9.5t-27 -25t-15.5 -36.5t-5 -43z"></glyph><glyph glyph-name="ampersand" unicode="&amp;" d="M45 193q0 40 13.5 74t37 62t54 49.5t64.5 36.5q-15 27 -25 61t-10 65q0 37 11 68.5t31.5 54.5t50.5 35.5t68 12.5q31 0 57.5 -10t46 -29t31 -45t11.5 -57q0 -36 -14 -65t-36.5 -52.5t-51 -41.5t-58.5 -31l104 -180q12 26 23 51t19 51q6 20 15 25t26 5h17q17 0 21.5 -8 t-0.5 -26q-11 -45 -30 -85t-44 -78q39 -54 96 -54q17 0 23.5 -4t6.5 -24v-36q0 -14 -11.5 -19t-31.5 -5q-42 0 -76 19.5t-65 54.5q-17 -15 -34.5 -28.5t-38 -23.5t-45.5 -16t-57 -6q-41 0 -77 14t-63 40t-43 62.5t-16 82.5zM294 451q21 9 41 22t35 29.5t24.5 37t9.5 44.5 q0 29 -18 46.5t-47 17.5q-35 0 -56.5 -22t-21.5 -57q0 -13 3 -28.5t8 -31.5t11 -31t11 -27zM133 197q0 -26 9 -49t25.5 -40t38 -27.5t47.5 -10.5q41 0 67.5 16.5t49.5 41.5l-125 216q-51 -20 -81.5 -55t-30.5 -92z"></glyph><glyph glyph-name="quotesingle" unicode="'" d="M138 444q-31 0 -31 33v202q0 33 31 33h2q31 0 31 -33v-202q0 -33 -31 -33h-2v0z"></glyph><glyph glyph-name="parenleft" unicode="(" d="M218 -146q-58 97 -95 205.5t-37 221.5q0 54 10 109.5t28 109.5t42 105.5t53 98.5q6 10 10 15t8.5 7.5t11 3t17.5 0.5h14q12 0 12 -8q0 -6 -7 -19q-26 -46 -47 -98.5t-37 -107t-24.5 -109.5t-8.5 -106q0 -112 31.5 -220.5t85.5 -207.5q2 -3 3.5 -7t1.5 -8q0 -11 -19 -11 h-10q-20 0 -26.5 4.5t-16.5 21.5z"></glyph><glyph glyph-name="parenright" unicode=")" d="M97 704q58 -97 95 -205.5t37 -221.5q0 -54 -10 -109.5t-28 -109.5t-42.5 -105.5t-52.5 -98.5q-6 -10 -10 -15t-8.5 -7.5t-11.5 -3t-17 -0.5h-14q-12 0 -12 8q0 6 7 19q25 46 46.5 98.5t37.5 107t24.5 109.5t8.5 106q0 112 -31.5 220.5t-85.5 207.5q-2 3 -3.5 7t-1.5 8 q0 11 19 11h10q20 0 26.5 -4.5t16.5 -21.5z"></glyph><glyph glyph-name="asterisk" unicode="*" d="M95 417q-12 9 -10 18t10 19l55 76l-95 28q-24 8 -17 31l5 15q5 13 14 15t22 -2l85 -27v91q0 31 24 31h18q13 0 17.5 -7t4.5 -24v-92l82 29q30 10 37 -12l5 -16q4 -13 -1 -21t-22 -13l-84 -27l53 -66q8 -10 10.5 -20.5t-9.5 -21.5l-12 -10q-11 -10 -20 -5.5t-17 15.5 l-52 70l-52 -72q-8 -10 -16.5 -15t-20.5 3z"></glyph><glyph glyph-name="plus" unicode="+" d="M78 218q-13 0 -22 9t-9 22v8q0 13 9 22t22 9h187v187q0 13 9 22t22 9h8q13 0 22 -9t9 -22v-187h187q13 0 22 -9t9 -22v-8q0 -13 -9 -22t-22 -9h-187v-187q0 -13 -9 -22t-22 -9h-8q-13 0 -22 9t-9 22v187h-187v0z"></glyph><glyph glyph-name="comma" unicode="," d="M88 82q0 13 9 22t22 9h40q13 0 22 -9t9 -22v-82q0 -9 -2 -24t-5.5 -33.5t-8.5 -38.5t-12 -38q-4 -10 -9 -15.5t-15 -5.5h-13q-8 0 -11.5 7t-0.5 15q10 35 13.5 65.5t3.5 67.5h-11q-13 0 -22 9t-9 22v51z"></glyph><glyph glyph-name="hyphen" unicode="-" d="M77 213q-13 0 -22 9t-9 22v20q0 13 9 22t22 9h142q13 0 22 -9t9 -22v-20q0 -13 -9 -22t-22 -9h-142v0z"></glyph><glyph glyph-name="period" unicode="." d="M88 82q0 13 9 22t22 9h40q13 0 22 -9t9 -22v-51q0 -13 -9 -22t-22 -9h-40q-13 0 -22 9t-9 22v51z"></glyph><glyph glyph-name="slash" unicode="/" d="M238 700q4 14 11 22t21 8h11q18 0 26 -9.5t4 -20.5l-216 -688q-4 -14 -11.5 -22t-21.5 -8h-23q-13 0 -16.5 9.5t-0.5 20.5z"></glyph><glyph glyph-name="zero" unicode="0" d="M278 -6q-68 0 -115.5 32t-76.5 82.5t-42 111.5t-13 120q0 58 13 119.5t42 112t76.5 82.5t115.5 32t115 -32t76.5 -82.5t42.5 -112t13 -119.5q0 -59 -13 -120t-42.5 -111.5t-76.5 -82.5t-115 -32zM278 76q25 0 52.5 11.5t49.5 41t36.5 80.5t14.5 131q0 79 -14.5 130.5 t-36.5 81t-49.5 41t-52.5 11.5q-26 0 -53 -11.5t-49 -41t-36.5 -81t-14.5 -130.5q0 -80 14.5 -131t36.5 -80.5t49 -41t53 -11.5z"></glyph><glyph glyph-name="one" unicode="1" d="M271 495h-114q-13 0 -22 8t-9 21v5q0 13 9 21.5t22 10.5q25 2 46.5 7t38.5 15t29.5 26t20.5 41q5 14 12.5 22t24.5 8h5q14 0 22.5 -7t8.5 -27v-615q0 -13 -9 -22t-22 -9h-32q-13 0 -22 9t-9 22v464z"></glyph><glyph glyph-name="two" unicode="2" d="M68 56q0 32 28 48q47 27 102 68t102 90.5t78.5 104.5t31.5 110q0 127 -131 127q-33 0 -56.5 -11t-38.5 -29t-21.5 -40.5t-6.5 -45.5q0 -13 0.5 -25t2.5 -26q2 -13 -5 -23.5t-24 -10.5h-26q-14 0 -22.5 8.5t-10.5 22.5q-3 24 -3 46q0 43 13 82.5t39.5 69t67.5 47t97 17.5 q49 0 89 -15.5t69 -44t45 -68.5t16 -89q0 -64 -31 -121.5t-78 -106t-101.5 -88.5t-102.5 -70l-1 -1h290q13 0 22 -9t9 -22v-20q0 -13 -9 -22t-22 -9h-381q-13 0 -22 9t-9 22v25z"></glyph><glyph glyph-name="three" unicode="3" d="M35 194q-2 12 8 21.5t23 9.5h25q14 0 22.5 -8.5t10.5 -22.5q10 -65 48.5 -91.5t109.5 -26.5q28 0 54.5 6t47 19.5t33 35.5t12.5 54q0 38 -12 61.5t-32.5 36.5t-48.5 17.5t-60 4.5h-31q-11 0 -21 7.5t-10 20.5v19q0 13 9 21.5t22 8.5q11 0 22 -0.5t22 -0.5q7 0 27 2.5 t41 13t37 31t16 57.5q0 54 -28.5 86.5t-100.5 32.5q-32 0 -55.5 -10.5t-39.5 -28t-25.5 -41t-13.5 -49.5q-2 -13 -10.5 -21.5t-21.5 -7.5l-25 1q-11 1 -21 10.5t-8 28.5q5 52 23 88.5t46.5 60t67 34.5t85.5 11q59 0 101 -17.5t68.5 -45t39 -62t12.5 -67.5q0 -20 -5 -42 t-14.5 -41.5t-25 -34.5t-36.5 -22q48 -21 74 -65t26 -95q0 -26 -8.5 -60.5t-34.5 -65.5t-73.5 -52.5t-125.5 -21.5q-105 0 -170 48.5t-76 151.5z"></glyph><glyph glyph-name="four" unicode="4" d="M68 163q-13 0 -22 9t-9 22v28q0 14 5 25.5t14 22.5l285 385q9 11 18 18t23 7h19q13 0 22 -9t9 -22v-404h64q13 0 22 -9t9 -22v-20q0 -13 -9 -22t-22 -9h-64v-132q0 -13 -9 -22t-22 -9h-32q-13 0 -22 9t-9 22v132h-270zM338 245v290h-2l-211 -290h213z"></glyph><glyph glyph-name="five" unicode="5" d="M41 182q-6 31 27 33l29 1q22 1 28.5 -5.5t8.5 -23.5q3 -18 11.5 -38t25.5 -36t44 -26.5t66 -10.5q38 0 65.5 15t45 38t25.5 51t8 54q0 50 -14 82.5t-34.5 51.5t-44 26.5t-42.5 7.5q-40 0 -71 -17t-53 -48q-8 -12 -16.5 -19t-22.5 -6l-32 2q-13 1 -21.5 10.5t-7.5 22.5 l19 302q1 13 10.5 22t22.5 9h325q13 0 22 -9t9 -22v-20q0 -13 -9 -22t-22 -9h-286l-11 -176h2q21 26 60.5 41t87.5 15q58 0 100 -21t69.5 -55.5t40.5 -78t13 -89.5q0 -52 -17 -96t-48 -76t-73.5 -50t-94.5 -18q-71 0 -116.5 21t-72.5 50.5t-39.5 61.5t-16.5 55z"></glyph><glyph glyph-name="six" unicode="6" d="M277 -6q-30 0 -70.5 12.5t-77.5 49t-62.5 102.5t-25.5 173q0 58 10.5 121t38.5 115t76.5 85.5t124.5 33.5q80 0 128.5 -38.5t71.5 -110.5q4 -11 -1 -21t-21 -12l-30 -4q-14 -2 -22 6t-13 21q-14 40 -43.5 61.5t-67.5 21.5q-51 0 -82.5 -23t-49 -59t-24 -79t-7.5 -83 q4 9 16.5 22.5t33 27t49.5 23t67 9.5q48 0 88.5 -16t69.5 -44.5t45 -68.5t16 -88q0 -38 -11.5 -79.5t-39.5 -76.5t-73.5 -58t-113.5 -23zM143 221q0 -33 11 -59.5t30 -45.5t45 -29.5t56 -10.5t56 10.5t45 29.5t30 45.5t11 59.5t-11 59.5t-30 45.5t-45 29.5t-56 10.5 t-56 -10.5t-45 -29.5t-30 -45.5t-11 -59.5z"></glyph><glyph glyph-name="seven" unicode="7" d="M153 31q14 63 36.5 122.5t51 116.5t61 111.5t67.5 106.5q8 12 16.5 26.5t15.5 29t11.5 28.5t4.5 26h-270v-96q0 -13 -9 -22t-22 -9h-8q-13 0 -22 9t-9 22v147q0 13 9 22t22 9h354q13 0 22 -9t9 -22v-54q0 -28 -13.5 -61.5t-39.5 -78.5q-30 -51 -57.5 -102t-51 -103 t-42 -106.5t-29.5 -112.5q-3 -14 -13.5 -22.5t-24.5 -8.5h-45q-12 0 -19.5 9.5t-4.5 21.5z"></glyph><glyph glyph-name="eight" unicode="8" d="M36 200q0 54 21.5 94t69.5 71q-42 23 -57.5 59t-15.5 78q0 22 7 54t30.5 60.5t68 49t118.5 20.5t118.5 -20.5t68 -49t30.5 -60.5t7 -54q0 -42 -15.5 -78t-57.5 -59q48 -31 69.5 -71t21.5 -94q0 -32 -12 -68t-40 -67t-74.5 -51t-115.5 -20t-115.5 20t-74.5 51t-40 67 t-12 68zM278 398q69 0 102.5 30t33.5 73t-33.5 73t-102.5 30t-102.5 -30t-33.5 -73t33.5 -73t102.5 -30zM130 205q0 -67 40.5 -98t107.5 -31t107.5 31t40.5 98q0 16 -5.5 36.5t-22 38.5t-45.5 30t-75 12q-47 0 -75.5 -12t-45 -30t-22 -38.5t-5.5 -36.5z"></glyph><glyph glyph-name="nine" unicode="9" d="M69 136q-4 12 2 23t18 13l30 6q13 2 21.5 -5t13.5 -20q14 -36 41.5 -59.5t71.5 -23.5q46 0 77 22t50 56t27 75t8 79q-19 -23 -38 -38.5t-40 -25.5t-45.5 -14.5t-54.5 -4.5q-35 0 -72 13.5t-68 41.5t-50.5 71.5t-19.5 104.5q0 52 18.5 95.5t50 74.5t73 48.5t86.5 17.5 q54 0 99 -16.5t77.5 -56t51 -104.5t18.5 -162q0 -33 -3.5 -72t-13.5 -78.5t-27.5 -76t-44.5 -64.5t-65.5 -45t-90.5 -17q-78 0 -127.5 37t-73.5 105zM275 301q26 0 52 8t47 25.5t34 46.5t13 71q0 24 -8 51t-25.5 49.5t-45 37t-67.5 14.5t-68 -14.5t-45 -37t-25 -49.5t-8 -51 q0 -44 13 -73.5t34 -46.5t47 -24t52 -7z"></glyph><glyph glyph-name="colon" unicode=":" d="M119 377q-13 0 -22 9t-9 22v51q0 13 9 22t22 9h40q13 0 22 -9t9 -22v-51q0 -13 -9 -22t-22 -9h-40zM88 82q0 13 9 22t22 9h40q13 0 22 -9t9 -22v-51q0 -13 -9 -22t-22 -9h-40q-13 0 -22 9t-9 22v51z"></glyph><glyph glyph-name="semicolon" unicode=";" d="M119 377q-13 0 -22 9t-9 22v51q0 13 9 22t22 9h40q13 0 22 -9t9 -22v-51q0 -13 -9 -22t-22 -9h-40zM88 82q0 13 9 22t22 9h40q13 0 22 -9t9 -22v-82q0 -9 -2 -24t-5.5 -33.5t-8.5 -38.5t-12 -38q-4 -10 -9 -15.5t-15 -5.5h-13q-8 0 -11.5 7t-0.5 15q10 35 13.5 65.5 t3.5 67.5h-11q-13 0 -22 9t-9 22v51z"></glyph><glyph glyph-name="less" unicode="&lt;" d="M72 212q-11 5 -18 14.5t-7 22.5v11q0 13 7 21t18 13l453 207q14 6 21 0t7 -18v-22q0 -14 -8 -21t-21 -13l-388 -174l388 -174q13 -6 21 -13.5t8 -21.5v-21q0 -13 -7 -18.5t-21 0.5l-453 207v0z"></glyph><glyph glyph-name="equal" unicode="=" d="M78 317q-13 0 -22 9t-9 22v8q0 13 9 22t22 9h444q13 0 22 -9t9 -22v-8q0 -13 -9 -22t-22 -9h-444zM78 119q-13 0 -22 9t-9 22v8q0 13 9 22t22 9h444q13 0 22 -9t9 -22v-8q0 -13 -9 -22t-22 -9h-444z"></glyph><glyph glyph-name="greater" unicode="&gt;" d="M47 44q0 14 8 21.5t21 13.5l388 174l-388 174q-13 6 -21 13t-8 21v22q0 13 7 18.5t21 -0.5l453 -207q11 -5 18 -13t7 -21v-11q0 -13 -7 -22.5t-18 -14.5l-453 -207q-14 -6 -21 -0.5t-7 18.5v21z"></glyph><glyph glyph-name="question" unicode="?" d="M242 352q0 19 7.5 29.5t29.5 10.5q86 0 120.5 35t34.5 95q0 26 -11.5 49t-31 40t-44.5 27t-52 10q-70 0 -104.5 -35.5t-42.5 -99.5q-2 -13 -8.5 -22t-20.5 -9h-28q-20 0 -26.5 13t-4.5 25q5 53 26 91.5t52.5 63.5t70 37t77.5 12q46 0 88 -14t73.5 -41t50 -67.5 t18.5 -92.5q0 -44 -14 -79.5t-39.5 -61.5t-60.5 -41t-78 -17v-125q0 -13 -9 -22t-22 -9h-20q-13 0 -22 9t-9 22v167zM240 63q0 17 9 24t22 7h26q13 0 22 -7t9 -24v-32q0 -17 -9 -24t-22 -7h-26q-13 0 -22 7t-9 24v32z"></glyph><glyph glyph-name="at" unicode="@" d="M68 173q0 90 32 168t88.5 136t134 91.5t169.5 33.5q81 0 149 -24.5t117.5 -68.5t77 -106t27.5 -137q0 -65 -17.5 -116.5t-47.5 -88.5t-69 -56.5t-82 -19.5q-33 0 -57.5 14t-36.5 46q-29 -35 -63 -51t-72 -16q-75 0 -117.5 45t-42.5 118q0 50 16.5 96t46.5 81t71 56t91 21 q45 0 73 -16t43 -42h2l3 16q4 21 10.5 26t26.5 5h20q12 0 19.5 -9.5t4.5 -21.5l-51 -225q-5 -19 -6.5 -32t-1.5 -21q0 -14 11 -22.5t24 -8.5q25 0 48 16t41 45t28.5 69.5t10.5 90.5q0 61 -23.5 111.5t-63.5 86t-94.5 55t-115.5 19.5q-75 0 -137.5 -29t-107.5 -78.5 t-70 -115.5t-25 -141t24 -136.5t68.5 -105t106.5 -67t138 -23.5q61 0 120 16.5t107 42.5q12 7 22.5 7t17.5 -11l7 -11q7 -11 2.5 -22t-15.5 -17q-57 -32 -122.5 -51t-141.5 -19q-93 0 -170 28t-132 79.5t-85.5 125t-30.5 164.5zM341 145q0 -48 24 -76.5t67 -28.5 q35 0 62.5 18.5t46 47t28.5 62.5t10 65q0 43 -22.5 71.5t-67.5 28.5q-35 0 -62.5 -16.5t-46.5 -43t-29 -60.5t-10 -68z"></glyph><glyph glyph-name="A" unicode="A" d="M270 683q5 13 16.5 21t25.5 8h38q14 0 25.5 -8t16.5 -21l234 -649q6 -16 -0.5 -25t-22.5 -9h-40q-14 0 -22 8t-13 22l-66 188h-270l-71 -189q-5 -13 -13.5 -21t-22.5 -8h-40q-16 0 -22.5 9t-0.5 25zM433 300l-103 295l-109 -295h212z"></glyph><glyph glyph-name="B" unicode="B" d="M71 681q0 13 9 22t22 9h302q65 0 108.5 -17t69.5 -43.5t37 -59.5t11 -65q0 -55 -29.5 -95t-74.5 -55v-2q34 -8 57.5 -25t38.5 -41t22 -53.5t7 -61.5q0 -20 -7 -53t-29.5 -64.5t-65.5 -54t-114 -22.5h-333q-13 0 -22 9t-9 22v650zM382 410q73 0 109.5 26.5t36.5 86.5 q0 34 -8.5 55t-26 32.5t-45.5 15.5t-67 4h-216v-220h217zM418 82q57 0 94 28t37 88q0 46 -14.5 72.5t-37.5 39t-53 15.5t-60 3h-219v-246h253z"></glyph><glyph glyph-name="C" unicode="C" d="M49 356q0 83 24.5 152t71 118.5t113 76.5t149.5 27q107 0 190.5 -46.5t121.5 -141.5q5 -14 -0.5 -24.5t-21.5 -13.5l-32 -6q-17 -3 -27.5 4t-15.5 20q-26 60 -84.5 96t-130.5 36q-66 0 -114.5 -24.5t-80 -65.5t-46.5 -95t-15 -113t15 -113t46.5 -95t80 -65.5t114.5 -24.5 q85 0 145 48t82 132q3 13 11.5 21t27.5 6l31 -4q19 -2 25 -13t1 -27q-13 -47 -42.5 -90t-71.5 -76t-95 -53t-114 -20q-83 0 -149.5 27t-113 76.5t-71 118.5t-24.5 152z"></glyph><glyph glyph-name="D" unicode="D" d="M71 681q0 13 9 22t22 9h238q81 0 140.5 -26t98.5 -73.5t57.5 -114t18.5 -146.5q0 -76 -19.5 -140.5t-58.5 -111.5t-98.5 -73.5t-138.5 -26.5h-238q-13 0 -22 9t-9 22v650zM324 82q63 0 107 20.5t71 57t39 88t12 113.5q0 61 -12.5 110.5t-39 84.5t-68.5 54.5t-101 19.5 h-167v-548h159z"></glyph><glyph glyph-name="E" unicode="E" d="M71 681q0 13 9 22t22 9h438q13 0 22 -9t9 -22v-20q0 -13 -9 -22t-22 -9h-375v-220h322q13 0 22 -9t9 -22v-20q0 -13 -9 -22t-22 -9h-322v-246h385q13 0 22 -9t9 -22v-20q0 -13 -9 -22t-22 -9h-448q-13 0 -22 9t-9 22v650z"></glyph><glyph glyph-name="F" unicode="F" d="M71 681q0 13 9 22t22 9h394q13 0 22 -9t9 -22v-20q0 -13 -9 -22t-22 -9h-331v-212h305q13 0 22 -9t9 -22v-20q0 -13 -9 -22t-22 -9h-305v-305q0 -13 -9 -22t-22 -9h-32q-13 0 -22 9t-9 22v650z"></glyph><glyph glyph-name="G" unicode="G" d="M49 356q0 69 23.5 136t69.5 120t112.5 85.5t152.5 32.5q106 0 190 -45t130 -132q7 -13 2.5 -25t-22.5 -17l-34 -9q-14 -4 -23 3t-15 19q-28 56 -82.5 90t-145.5 34q-60 0 -107.5 -23.5t-80.5 -62.5t-50.5 -91t-17.5 -109q0 -59 15 -113t46.5 -95t80 -65.5t114.5 -24.5 q56 0 102.5 14.5t80 43t52 71.5t18.5 100h-215q-13 0 -22 9t-9 22v20q0 13 9 22t22 9h268q13 0 22 -9t9 -22v-319q0 -13 -9 -22t-22 -9h-20q-13 0 -22 9t-9 22v74h-2q-21 -33 -49.5 -55.5t-61 -36t-69 -19.5t-73.5 -6q-83 0 -149.5 27t-113 76.5t-71 118.5t-24.5 152z"></glyph><glyph glyph-name="H" unicode="H" d="M71 681q0 13 9 22t22 9h32q13 0 22 -9t9 -22v-271h392v271q0 13 9 22t22 9h32q13 0 22 -9t9 -22v-650q0 -13 -9 -22t-22 -9h-32q-13 0 -22 9t-9 22v297h-392v-297q0 -13 -9 -22t-22 -9h-32q-13 0 -22 9t-9 22v650z"></glyph><glyph glyph-name="I" unicode="I" d="M82 681q0 13 9 22t22 9h32q13 0 22 -9t9 -22v-650q0 -13 -9 -22t-22 -9h-32q-13 0 -22 9t-9 22v650z"></glyph><glyph glyph-name="J" unicode="J" d="M17 48q0 17 8 25t19 8q13 0 23 -2.5t33 -2.5q36 0 58 9t34 26.5t16.5 42t4.5 56.5v471q0 13 9 22t22 9h32q13 0 22 -9t9 -22v-527q0 -33 -11.5 -64t-35.5 -55t-60.5 -38.5t-86.5 -14.5q-53 0 -74.5 10.5t-21.5 34.5v21z"></glyph><glyph glyph-name="K" unicode="K" d="M71 681q0 13 9 22t22 9h32q13 0 22 -9t9 -22v-314l303 309q17 17 31 26.5t36 9.5h39q22 0 22 -15q0 -6 -5 -13t-12 -14l-245 -252l271 -381q14 -19 6.5 -28t-24.5 -9h-34q-18 0 -31 6t-23 20l-230 324l-104 -102v-217q0 -13 -9 -22t-22 -9h-32q-13 0 -22 9t-9 22v650z "></glyph><glyph glyph-name="L" unicode="L" d="M71 681q0 13 9 22t22 9h32q13 0 22 -9t9 -22v-599h324q13 0 22 -9t9 -22v-20q0 -13 -9 -22t-22 -9h-387q-13 0 -22 9t-9 22v650z"></glyph><glyph glyph-name="M" unicode="M" d="M74 681q0 13 9 22t22 9h62q14 0 25.5 -8t16.5 -21l207 -549l207 549q5 13 16.5 21t25.5 8h62q13 0 22 -9t9 -22v-650q0 -13 -9 -22t-22 -9h-32q-13 0 -22 9t-9 22v542h-2l-197 -544q-5 -13 -16.5 -21t-25.5 -8h-14q-14 0 -25.5 8t-16.5 21l-197 544h-2v-542q0 -13 -9 -22 t-22 -9h-32q-13 0 -22 9t-9 22v650z"></glyph><glyph glyph-name="N" unicode="N" d="M71 681q0 13 9 22t22 9h36q27 0 45 -26l360 -536h2v531q0 13 9 22t22 9h26q13 0 22 -9t9 -22v-650q0 -13 -9 -22t-22 -9h-35q-28 0 -46 26l-360 535h-2v-530q0 -13 -9 -22t-22 -9h-26q-13 0 -22 9t-9 22v650z"></glyph><glyph glyph-name="O" unicode="O" d="M49 356q0 83 24.5 152t71 118.5t113 76.5t149.5 27t149.5 -27t113 -76.5t71 -118.5t24.5 -152t-24.5 -152t-71 -118.5t-113 -76.5t-149.5 -27t-149.5 27t-113 76.5t-71 118.5t-24.5 152zM151 356q0 -59 15 -113t46.5 -95t80 -65.5t114.5 -24.5t114 24.5t79.5 65.5t47 95 t15.5 113t-15.5 113t-47 95t-79.5 65.5t-114 24.5t-114.5 -24.5t-80 -65.5t-46.5 -95t-15 -113z"></glyph><glyph glyph-name="P" unicode="P" d="M71 681q0 13 9 22t22 9h325q32 0 65 -10t60 -34t44 -63.5t17 -97.5q0 -53 -17.5 -91t-45 -63t-62.5 -37t-69 -12h-254v-273q0 -13 -9 -22t-22 -9h-32q-13 0 -22 9t-9 22v650zM383 386q61 0 98.5 28.5t37.5 93.5q0 60 -28.5 91t-94.5 31h-231v-244h218z"></glyph><glyph glyph-name="Q" unicode="Q" d="M49 356q0 83 24.5 152t71 118.5t113 76.5t149.5 27t149.5 -27t113 -76.5t71 -118.5t24.5 -152q0 -136 -65 -231l82 -68q12 -11 12 -22.5t-8 -21.5l-19 -23q-8 -10 -20.5 -11.5t-23.5 7.5l-87 70q-45 -36 -102.5 -55t-126.5 -19q-83 0 -149.5 27t-113 76.5t-71 118.5 t-24.5 152zM151 356q0 -59 15 -113t46.5 -95t80 -65.5t114.5 -24.5t114 24.5t79.5 65.5t47 95t15.5 113t-15.5 113t-47 95t-79.5 65.5t-114 24.5t-114.5 -24.5t-80 -65.5t-46.5 -95t-15 -113z"></glyph><glyph glyph-name="R" unicode="R" d="M71 681q0 13 9 22t22 9h291q42 0 83 -9.5t73.5 -32.5t52.5 -62.5t20 -100.5q0 -34 -8.5 -66.5t-27.5 -59.5t-51 -46.5t-78 -26.5l166 -261q5 -8 8.5 -15t3.5 -12q0 -11 -10 -15.5t-25 -4.5h-30q-14 0 -27 7t-21 19l-175 276h-182v-271q0 -13 -9 -22t-22 -9h-32 q-13 0 -22 9t-9 22v650zM378 384q33 0 60.5 6t47.5 20t31 37.5t11 59.5q0 35 -11 58.5t-31 38t-47.5 20.5t-60.5 6h-213v-246h213z"></glyph><glyph glyph-name="S" unicode="S" d="M43 197q-2 13 5 24t26 13l32 3q20 2 28 -6.5t10 -21.5q11 -81 66 -116t140 -35q34 0 65.5 8t56 25t39.5 44t15 65q0 37 -19.5 59.5t-51 37t-72.5 23.5t-83 18t-83 21t-72.5 33t-51 53t-19.5 82q0 52 22.5 90t59 63t82 37.5t91.5 12.5q106 0 181.5 -46t97.5 -138 q4 -14 -3.5 -26.5t-22.5 -13.5l-32 -1q-28 -1 -36 35q-11 51 -59.5 82.5t-119.5 31.5q-25 0 -53 -5t-51.5 -17t-39 -33t-15.5 -52q0 -35 19.5 -56.5t51 -35t72.5 -22t83 -18t83 -23t72.5 -37t51 -60t19.5 -92.5q0 -57 -24 -98.5t-62.5 -68.5t-87.5 -40.5t-100 -13.5 q-59 0 -111.5 12t-94 37.5t-69 66.5t-36.5 99z"></glyph><glyph glyph-name="T" unicode="T" d="M231 630h-183q-13 0 -22 9t-9 22v20q0 13 9 22t22 9h460q13 0 22 -9t9 -22v-20q0 -13 -9 -22t-22 -9h-183v-599q0 -13 -9 -22t-22 -9h-32q-13 0 -22 9t-9 22v599z"></glyph><glyph glyph-name="U" unicode="U" d="M71 681q0 13 9 22t22 9h32q13 0 22 -9t9 -22v-431q0 -94 41.5 -140t135.5 -46t135.5 46t41.5 140v431q0 13 9 22t22 9h32q13 0 22 -9t9 -22v-447q0 -61 -19 -108t-54 -79t-85 -48.5t-113 -16.5t-113 16.5t-85 48.5t-54 79t-19 108v447z"></glyph><glyph glyph-name="V" unicode="V" d="M23 676q-2 5 -3 8.5t-1 7.5q0 11 8 15.5t29 4.5h32q27 0 36 -30l176 -552h2l188 552q10 30 37 30h22q41 0 41 -20q0 -4 -1 -8t-3 -9l-230 -645q-5 -14 -14.5 -22t-23.5 -8h-41q-14 0 -23.5 8t-14.5 22z"></glyph><glyph glyph-name="W" unicode="W" d="M786 30q-5 -14 -14 -22t-23 -8h-36q-14 0 -24 8t-14 22l-175 552h-2l-174 -552q-5 -14 -14.5 -22t-23.5 -8h-36q-14 0 -23 8t-14 22l-199 646q-2 5 -3 8.5t-1 7.5q0 11 8 15.5t29 4.5h30q27 0 36 -30l157 -526h2l169 526q5 14 15 22t24 8h42q14 0 22.5 -8t13.5 -22 l169 -526h2l157 526q10 30 37 30h24q41 0 41 -20q0 -4 -1 -9t-3 -10z"></glyph><glyph glyph-name="X" unicode="X" d="M249 374l-191 300q-11 16 -5 27t20 11h42q12 0 18.5 -0.5t11 -3t8.5 -8t10 -15.5l142 -226l142 226q11 17 19 22t29 5h38q20 0 24 -11t-4 -25l-192 -302l217 -341q11 -17 5 -25t-21 -8h-45q-21 0 -30 6t-18 21l-164 264l-164 -264q-11 -18 -19 -22.5t-22 -4.5h-50 q-16 0 -21.5 9.5t2.5 21.5z"></glyph><glyph glyph-name="Y" unicode="Y" d="M267 328l-232 348q-11 17 -3.5 26.5t23.5 9.5h38q20 0 28.5 -5t19.5 -21l173 -269l173 269q10 16 18.5 21t29.5 5h42q16 0 21.5 -10t-6.5 -28l-231 -346v-297q0 -13 -9 -22t-22 -9h-32q-13 0 -22 9t-9 22v297z"></glyph><glyph glyph-name="Z" unicode="Z" d="M22 63q0 23 11.5 38.5t28.5 36.5l405 492h-379q-13 0 -22 9t-9 22v20q0 13 9 22t22 9h451q17 0 24 -9t7 -27v-21q0 -23 -9 -37.5t-20 -28.5l-418 -507h435q13 0 22 -9t9 -22v-20q0 -13 -9 -22t-22 -9h-505q-31 0 -31 41v22z"></glyph><glyph glyph-name="bracketleft" unicode="[" d="M109 681q0 13 9 22t22 9h126q13 0 22 -9t9 -22v-2q0 -13 -9 -22t-22 -9h-75v-738h75q13 0 22 -9t9 -22v-2q0 -13 -9 -22t-22 -9h-126q-13 0 -22 9t-9 22v804z"></glyph><glyph glyph-name="backslash" unicode="\" d="M22 700q-4 11 4 20.5t26 9.5h11q14 0 21 -8t11 -22l216 -688q3 -11 -0.5 -20.5t-16.5 -9.5h-23q-14 0 -21.5 8t-11.5 22z"></glyph><glyph glyph-name="bracketright" unicode="]" d="M124 -90v738h-75q-13 0 -22 9t-9 22v2q0 13 9 22t22 9h126q13 0 22 -9t9 -22v-804q0 -13 -9 -22t-22 -9h-126q-13 0 -22 9t-9 22v2q0 13 9 22t22 9h75z"></glyph><glyph glyph-name="asciicircum" unicode="^" d="M78 257q-11 0 -16 9t0 19l196 370q6 11 14 18t21 7h15q13 0 20.5 -7t13.5 -18l196 -370q5 -10 0 -19t-16 -9h-14q-22 0 -29.5 5.5t-16.5 22.5l-162 307l-162 -307q-8 -16 -17 -22t-29 -6h-14v0z"></glyph><glyph glyph-name="underscore" unicode="_" d="M0 -75h500v-50h-500v50z"></glyph><glyph glyph-name="grave" unicode="`" d="M119 572q-16 0 -23 3.5t-21 19.5l-77 84q-8 10 -8 17q0 8 5 12.5t10 4.5h46q14 0 21.5 -4.5t18.5 -22.5l49 -78q6 -11 6 -18q0 -8 -5.5 -13t-13.5 -5h-8v0z"></glyph><glyph glyph-name="a" unicode="a" d="M28 120q0 49 21.5 80t62 49t99 26t132.5 12v42q0 51 -24.5 74t-87.5 23q-78 0 -94 -67q-3 -14 -11 -22t-23 -7l-21 1q-15 1 -21.5 12.5t-1.5 31.5q14 59 59.5 87t113.5 28q30 0 64 -5.5t62.5 -21.5t47.5 -45t19 -76v-226q0 -50 36 -50h7q11 0 14 -7t3 -15v-18 q0 -20 -16.5 -25t-34.5 -5q-37 0 -56 16t-27 50q-68 -74 -170 -74q-32 0 -60 10t-48.5 28t-32.5 42t-12 52zM116 125q0 -22 9 -36t22.5 -22.5t29.5 -11.5t31 -3q58 0 96.5 33t38.5 93v55q-50 -7 -92 -14.5t-72 -19t-46.5 -29t-16.5 -45.5z"></glyph><glyph glyph-name="b" unicode="b" d="M63 681q0 13 9 22t22 9h20q13 0 22 -9t9 -22v-263h2q27 36 66 54t87 18q61 0 104.5 -21t71 -56.5t40 -80.5t12.5 -93t-12 -93t-39.5 -80.5t-72.5 -56.5t-111 -21q-45 0 -83.5 17.5t-63.5 51.5h-1v-26q0 -13 -9 -22t-22 -9h-20q-13 0 -22 9t-9 22v650zM142 239 q0 -36 8.5 -68.5t26.5 -57.5t46 -40t68 -15t68 15t46 40t26.5 57.5t8.5 68.5t-8.5 68.5t-26.5 57.5t-46 40t-68 15q-36 0 -63.5 -15t-46.5 -40t-29 -57.5t-10 -68.5z"></glyph><glyph glyph-name="c" unicode="c" d="M34 234q0 55 15.5 102t45.5 81.5t74 53.5t102 19q69 0 123.5 -32t79.5 -91q6 -16 1 -27.5t-19 -13.5l-32 -3q-14 -2 -22 6t-13 21q-14 35 -45 55.5t-73 20.5q-44 0 -72.5 -17t-45.5 -44t-24 -60.5t-7 -66.5q0 -35 8 -68.5t25 -59.5t45 -42t69 -16q53 0 87.5 25.5 t45.5 72.5q3 13 9.5 21.5t20.5 7.5l24 -2q23 -2 29 -13.5t1 -29.5q-8 -32 -27.5 -59t-47 -46.5t-63 -30t-76.5 -10.5q-58 0 -102.5 18t-74.5 50.5t-45.5 77.5t-15.5 100z"></glyph><glyph glyph-name="d" unicode="d" d="M34 239q0 48 12.5 93t40 80.5t70.5 56.5t105 21q48 0 87 -18t66 -54h2v263q0 13 9 22t22 9h20q13 0 22 -9t9 -22v-650q0 -13 -9 -22t-22 -9h-20q-13 0 -22 9t-9 22v26h-2q-25 -34 -63 -51.5t-83 -17.5q-66 0 -111 21t-72.5 56.5t-39.5 80.5t-12 93zM122 239 q0 -36 8.5 -68.5t26.5 -57.5t46 -40t68 -15t68 15t46 40t26.5 57.5t8.5 68.5t-10 68.5t-29 57.5t-46.5 40t-63.5 15q-40 0 -68 -15t-46 -40t-26.5 -57.5t-8.5 -68.5z"></glyph><glyph glyph-name="e" unicode="e" d="M34 235q0 58 14 105t42 80.5t71 51.5t101 18q62 0 104.5 -23.5t69 -58t38 -75t11.5 -74.5q0 -12 -5 -19.5t-11 -11.5t-11.5 -5.5t-6.5 -1.5h-329q0 -36 9.5 -66.5t27.5 -53.5t45 -36t62 -13q91 0 124 77q5 13 12.5 21t21.5 6l24 -3q35 -4 18 -44q-25 -60 -79.5 -90.5 t-123.5 -30.5q-55 0 -97.5 19t-72 52.5t-44.5 78.5t-15 97zM397 285q-4 29 -14.5 55t-27.5 45t-42.5 30t-59.5 11q-30 0 -53.5 -12t-40 -31.5t-26 -45t-11.5 -52.5h275z"></glyph><glyph glyph-name="f" unicode="f" d="M86 408h-48q-13 0 -22 9t-9 22v8q0 13 9 22t22 9h48v85q0 79 32 114t101 35q23 0 37.5 -5t14.5 -25v-8q0 -11 -6 -19t-19 -8q-5 0 -9 0.5t-11 0.5q-10 0 -20 -2t-18.5 -9t-14 -20.5t-5.5 -35.5v-103h58q13 0 22 -9t9 -22v-8q0 -13 -9 -22t-22 -9h-58v-377q0 -13 -9 -22 t-22 -9h-20q-13 0 -22 9t-9 22v377z"></glyph><glyph glyph-name="g" unicode="g" d="M117 -49q14 0 21 -8.5t10 -22.5q10 -42 46 -61t82 -19q52 0 80.5 16.5t42 41t16 53.5t2.5 55v68h-2q-35 -45 -72 -65.5t-91 -20.5q-31 0 -69 10.5t-71 38.5t-55.5 76.5t-22.5 125.5q0 52 13 98t40 80t68.5 53.5t97.5 19.5q58 0 98.5 -20.5t63.5 -56.5l2 -1v35q0 13 9 22 t22 9h20q13 0 22 -9t9 -22v-451q0 -27 -5.5 -65t-27.5 -72.5t-66 -58.5t-121 -24q-40 0 -76 8t-64.5 25t-48.5 42.5t-28 61.5q-4 14 1 26t19 12h35zM116 239q0 -38 9.5 -70.5t28.5 -57.5t46 -39t63 -14t64.5 15t48.5 40.5t30.5 59t10.5 69.5q0 49 -11.5 83t-32 55 t-48.5 30.5t-62 9.5q-63 0 -105 -44.5t-42 -136.5z"></glyph><glyph glyph-name="h" unicode="h" d="M63 681q0 13 9 22t22 9h20q13 0 22 -9t9 -22v-267h2q23 37 57.5 56.5t82.5 19.5q36 0 67 -8.5t53.5 -29t35.5 -54t13 -83.5v-284q0 -13 -9 -22t-22 -9h-20q-13 0 -22 9t-9 22v276q0 31 -7.5 51.5t-21 33t-32 17.5t-40.5 5q-57 0 -92.5 -34t-35.5 -92v-257q0 -13 -9 -22 t-22 -9h-20q-13 0 -22 9t-9 22v650z"></glyph><glyph glyph-name="i" unicode="i" d="M92 618q-13 0 -22 9t-9 22v32q0 13 9 22t22 9h20q13 0 22 -9t9 -22v-32q0 -13 -9 -22t-22 -9h-20zM61 447q0 13 9 22t22 9h20q13 0 22 -9t9 -22v-416q0 -13 -9 -22t-22 -9h-20q-13 0 -22 9t-9 22v416z"></glyph><glyph glyph-name="j" unicode="j" d="M92 618q-13 0 -22 9t-9 22v32q0 13 9 22t22 9h20q13 0 22 -9t9 -22v-32q0 -13 -9 -22t-22 -9h-20zM61 447q0 13 9 22t22 9h20q13 0 22 -9t9 -22v-539q0 -32 -4 -58.5t-16.5 -45.5t-35 -29.5t-59.5 -10.5q-35 0 -44.5 7.5t-9.5 23.5v20q0 6 5 13.5t17 7.5q4 0 7.5 -0.5 t11.5 -0.5q18 0 32 12t14 42v558z"></glyph><glyph glyph-name="k" unicode="k" d="M63 681q0 13 9 22t22 9h20q13 0 22 -9t9 -22v-408l167 180q7 7 12 11.5t10 7t12 3.5t18 1h26q12 0 16 -4t4 -11q0 -10 -15 -25l-137 -149l190 -254q12 -16 5.5 -24.5t-19.5 -8.5h-33q-18 0 -28.5 4.5t-21.5 20.5l-149 203l-57 -61v-136q0 -13 -9 -22t-22 -9h-20 q-13 0 -22 9t-9 22v650z"></glyph><glyph glyph-name="l" unicode="l" d="M61 681q0 13 9 22t22 9h20q13 0 22 -9t9 -22v-650q0 -13 -9 -22t-22 -9h-20q-13 0 -22 9t-9 22v650z"></glyph><glyph glyph-name="m" unicode="m" d="M63 447q0 13 9 22t22 9h14q13 0 21.5 -9t9.5 -22v-29h2q24 29 58 50.5t76 21.5q19 0 39.5 -4.5t39.5 -14t34.5 -25.5t25.5 -39q13 18 30 33t36 26t39.5 17.5t39.5 6.5q29 0 57 -7.5t50 -27t35.5 -53.5t13.5 -86v-285q0 -13 -9 -22t-22 -9h-20q-13 0 -22 9t-9 22v289 q0 45 -19.5 69.5t-64.5 24.5q-19 0 -40 -5.5t-38.5 -17.5t-29 -31t-11.5 -46v-283q0 -13 -9 -22t-22 -9h-20q-13 0 -22 9t-9 22v289q0 45 -19.5 69.5t-64.5 24.5q-19 0 -40 -5.5t-38.5 -17.5t-29 -31t-11.5 -46v-283q0 -13 -9 -22t-22 -9h-20q-13 0 -22 9t-9 22v416z"></glyph><glyph glyph-name="n" unicode="n" d="M63 447q0 13 9 22t22 9h20q13 0 22 -9t9 -22v-33h2q24 36 58 56t82 20q36 0 67 -8.5t53.5 -29t35.5 -54t13 -83.5v-284q0 -13 -9 -22t-22 -9h-20q-13 0 -22 9t-9 22v276q0 31 -7.5 51.5t-21 33t-32 17.5t-40.5 5q-57 0 -92.5 -34t-35.5 -92v-257q0 -13 -9 -22t-22 -9h-20 q-13 0 -22 9t-9 22v416z"></glyph><glyph glyph-name="o" unicode="o" d="M34 239q0 54 16 100t46 79.5t73.5 52.5t98.5 19t98.5 -19t73.5 -52.5t46 -79.5t16 -100t-16 -100t-46 -79.5t-73.5 -52.5t-98.5 -19t-98.5 19t-73.5 52.5t-46 79.5t-16 100zM122 239q0 -30 6 -62.5t22.5 -60.5t45 -46t72.5 -18t72.5 18t45 46t22.5 60.5t6 62.5t-6 62.5 t-22.5 60.5t-45 46t-72.5 18t-72.5 -18t-45 -46t-22.5 -60.5t-6 -62.5z"></glyph><glyph glyph-name="p" unicode="p" d="M145 -193q0 -13 -9 -22t-22 -9h-20q-13 0 -22 9t-9 22v640q0 13 9 22t22 9h20q13 0 22 -9t9 -22v-26h1q20 27 61 48t92 21q63 0 107 -21t71 -56.5t39 -80.5t12 -93t-12.5 -93t-40 -80.5t-71 -56.5t-104.5 -21q-48 0 -87 18t-66 54h-2v-253zM142 239q0 -36 10 -68.5 t29 -57.5t46.5 -40t63.5 -15q40 0 68 15t46 40t26.5 57.5t8.5 68.5t-8.5 68.5t-26.5 57.5t-46 40t-68 15t-68 -15t-46 -40t-26.5 -57.5t-8.5 -68.5z"></glyph><glyph glyph-name="q" unicode="q" d="M34 239q0 48 12 93t39.5 80.5t71.5 56.5t109 21q21 0 43 -5.5t42 -15t36.5 -22t27.5 -26.5h2v26q0 13 9 22t22 9h20q13 0 22 -9t9 -22v-640q0 -13 -9 -22t-22 -9h-20q-13 0 -22 9t-9 22v253h-2q-27 -36 -66 -54t-87 -18q-62 0 -105 21t-70.5 56.5t-40 80.5t-12.5 93z M122 239q0 -36 8.5 -68.5t26.5 -57.5t46 -40t68 -15q36 0 63.5 15t46.5 40t29 57.5t10 68.5t-8.5 68.5t-26.5 57.5t-46 40t-68 15t-68 -15t-46 -40t-26.5 -57.5t-8.5 -68.5z"></glyph><glyph glyph-name="r" unicode="r" d="M63 447q0 13 9 22t22 9h20q13 0 22 -9t9 -22v-51h2q50 86 146 86q23 0 23 -20v-37q0 -22 -14.5 -25.5t-40.5 -3.5q-30 0 -51.5 -12.5t-36 -31t-21.5 -41t-7 -43.5v-237q0 -13 -9 -22t-22 -9h-20q-13 0 -22 9t-9 22v416z"></glyph><glyph glyph-name="s" unicode="s" d="M243 -12q-39 0 -70.5 8t-62.5 26q-16 9 -29.5 23t-23 29t-15 30t-5.5 28t5 20t20 9l27 3q16 2 23 -6t10 -21q6 -24 19 -40.5t31 -26t39.5 -14t43.5 -4.5q14 0 32.5 3t35 12t28 25t11.5 42q0 30 -23 44.5t-58 23t-75 15.5t-75 21t-58 40t-23 73q0 36 16 62.5t42 43.5 t58 25t64 8q23 0 54.5 -5.5t61.5 -20.5q13 -6 28 -17t28 -24.5t21.5 -29.5t8.5 -33q0 -12 -4.5 -20t-21.5 -10l-24 -3q-14 -2 -22 6.5t-12 21.5q-11 36 -43.5 53.5t-70.5 17.5q-17 0 -35 -3t-33 -11t-24.5 -21.5t-9.5 -35.5q0 -27 23.5 -40.5t59 -22.5t76.5 -17t76.5 -23 t59 -42.5t23.5 -74.5q0 -38 -17.5 -65.5t-47 -45.5t-66.5 -27t-76 -9z"></glyph><glyph glyph-name="t" unicode="t" d="M86 408h-48q-13 0 -22 9t-9 22v8q0 13 9 22t22 9h48v118q0 13 9 22t22 9h20q13 0 22 -9t9 -22v-118h58q13 0 22 -9t9 -22v-8q0 -13 -9 -22t-22 -9h-58v-294q0 -14 1 -26t6 -20q7 -10 24 -10q8 0 16 1.5t18 1.5q19 0 19 -28v-12q0 -22 -24 -27.5t-57 -5.5q-32 0 -49 7 t-25 19.5t-9.5 30t-1.5 37.5v326z"></glyph><glyph glyph-name="u" unicode="u" d="M63 447q0 13 9 22t22 9h20q13 0 22 -9t9 -22v-284q0 -51 28 -75t73 -24q57 0 92.5 34t35.5 92v257q0 13 9 22t22 9h20q13 0 22 -9t9 -22v-416q0 -13 -9 -22t-22 -9h-20q-13 0 -22 9t-9 22v33h-2q-24 -36 -58 -56t-82 -20q-36 0 -67 8.5t-53.5 29t-35.5 54t-13 83.5v284z "></glyph><glyph glyph-name="v" unicode="v" d="M24 442q-8 21 -1.5 28.5t21.5 7.5h28q18 0 24 -9t11 -22l117 -325h2l113 326q5 14 10.5 22t23.5 8h23q19 0 25.5 -7t-1.5 -30l-146 -411q-5 -14 -13.5 -22t-22.5 -8h-25q-14 0 -23 8t-14 21z"></glyph><glyph glyph-name="w" unicode="w" d="M26 441q-8 23 -0.5 30t20.5 7h32q18 0 23.5 -8t10.5 -22l109 -321h2l104 321q5 17 13.5 23.5t22.5 6.5h18q14 0 22.5 -6.5t13.5 -23.5l102 -321h2l113 321q5 13 11 21.5t24 8.5h21q37 0 24 -37l-149 -412q-5 -13 -14 -21t-23 -8h-19q-14 0 -22.5 8t-13.5 22l-103 321h-2 l-106 -321q-5 -14 -13.5 -22t-22.5 -8h-21q-14 0 -22.5 8t-13.5 22z"></glyph><glyph glyph-name="x" unicode="x" d="M49 0q-11 0 -19 9t3 28l124 205l-119 202q-9 15 -2.5 24.5t20.5 9.5h31q15 0 22 -5t18 -22l77 -136l83 136q10 16 17.5 21.5t22.5 5.5h31q13 0 20.5 -9t-3.5 -26l-125 -201l124 -205q13 -22 5 -29.5t-21 -7.5h-31q-14 0 -23 7.5t-17 19.5l-83 141l-86 -141 q-9 -14 -17 -20.5t-23 -6.5h-29v0z"></glyph><glyph glyph-name="y" unicode="y" d="M33 -157q8 0 14.5 -1.5t18.5 -1.5q26 0 44.5 13t32.5 54l33 92l-149 442q-7 21 0 29t24 8h25q20 0 25.5 -8t10.5 -22l108 -331h2l115 331q5 14 10.5 22t24.5 8h22q37 0 24 -36l-194 -547q-9 -26 -20 -50t-27 -42t-39 -28.5t-56 -10.5q-14 0 -34 4t-29 12q-6 6 -6 17v23 q0 23 20 23z"></glyph><glyph glyph-name="z" unicode="z" d="M23 51q0 14 5.5 23t14.5 20l253 314h-217q-13 0 -22 9t-9 22v8q0 13 9 22t22 9h287q13 0 22 -9t9 -22v-18q0 -14 -5.5 -23t-14.5 -20l-257 -316h252q13 0 22 -9t9 -22v-8q0 -13 -9 -22t-22 -9h-318q-13 0 -22 9t-9 22v20z"></glyph><glyph glyph-name="braceleft" unicode="{" d="M108 135q0 38 -10.5 66t-33.5 39q-30 14 -30 30v14q0 14 8 20t22 14q23 11 33.5 39t10.5 66v173q0 63 28.5 89.5t88.5 26.5h29q11 0 18.5 -7.5t7.5 -18.5v-15q0 -10 -6.5 -16.5t-16.5 -6.5h-25q-22 0 -32 -11t-10 -39v-175q0 -41 -7 -66.5t-18 -41t-24 -23.5t-25 -13 q12 -5 25 -13t24 -23.5t18 -41.5t7 -66v-175q0 -28 10 -39t32 -11h25q10 0 16.5 -6.5t6.5 -16.5v-15q0 -11 -7.5 -18.5t-18.5 -7.5h-29q-60 0 -88.5 26.5t-28.5 89.5v173z"></glyph><glyph glyph-name="bar" unicode="|" d="M76 755q0 13 9 22t22 9h8q13 0 22 -9t9 -22v-938q0 -13 -9 -22t-22 -9h-8q-13 0 -22 9t-9 22v938z"></glyph><glyph glyph-name="braceright" unicode="}" d="M101 -90q22 0 32 11t10 39v175q0 40 7 66t18 41.5t24 23.5t25 13q-12 5 -25 13t-24 23.5t-18 41t-7 66.5v175q0 28 -10 39t-32 11h-25q-10 0 -16.5 6.5t-6.5 16.5v15q0 11 7.5 18.5t18.5 7.5h29q60 0 88.5 -26.5t28.5 -89.5v-173q0 -38 10.5 -66t33.5 -39q14 -8 22 -14 t8 -20v-14q0 -16 -30 -30q-23 -11 -33.5 -39t-10.5 -66v-173q0 -63 -28.5 -89.5t-88.5 -26.5h-29q-11 0 -18.5 7.5t-7.5 18.5v15q0 10 6.5 16.5t16.5 6.5h25z"></glyph><glyph glyph-name="asciitilde" unicode="~" d="M78 221q-5 8 -4 17.5t11 23.5q17 24 43.5 41.5t65.5 17.5q28 0 57.5 -10.5t57.5 -23.5q29 -13 54 -22.5t44 -9.5q20 0 32.5 8t23.5 19q10 10 17 19t15 9q9 0 17 -10l8 -12q8 -11 6 -20t-13 -22q-18 -22 -42.5 -41.5t-64.5 -19.5q-28 0 -51.5 10t-52.5 24 q-25 13 -51.5 22.5t-61.5 9.5q-21 0 -34 -7.5t-22 -18.5t-15 -19.5t-14 -8.5q-5 0 -8.5 1.5t-8.5 8.5z"></glyph><glyph glyph-name="uni00A0" unicode=" "></glyph><glyph glyph-name="exclamdown" unicode="¡" d="M186 102q2 -12 2.5 -31t0.5 -31v-233q0 -17 -9 -24t-22 -7h-20q-13 0 -22 7t-9 24v233q0 12 0.5 31t2.5 31l21 223q0 6 5 11t11 5q8 0 13 -5t5 -11zM192 425q0 -17 -9 -24t-22 -7h-26q-13 0 -22 7t-9 24v32q0 17 9 24t22 7h26q13 0 22 -7t9 -24v-32z"></glyph><glyph glyph-name="cent" unicode="¢" d="M48 234q0 51 13 95.5t39 77.5t64.5 54t88.5 26v71q0 11 8.5 19.5t19.5 8.5h2q11 0 19.5 -8.5t8.5 -19.5v-70q60 -5 109 -36.5t71 -92.5q5 -11 -2 -21t-19 -12l-23 -2q-18 -2 -28.5 6t-15.5 20q-26 60 -92 74v-372q42 7 69 32t36 66q5 18 13 24t25 4l25 -2q12 -1 19 -11 t4 -22q-17 -68 -67.5 -108.5t-123.5 -46.5v-74q0 -11 -8.5 -19.5t-19.5 -8.5h-2q-11 0 -19.5 8.5t-8.5 19.5v75q-50 4 -88 24t-64 52.5t-39.5 75.5t-13.5 93zM253 423q-34 -6 -56.5 -24.5t-36 -44.5t-19 -56.5t-5.5 -59.5q0 -32 6.5 -62.5t20.5 -56t36 -43t54 -23.5v370z "></glyph><glyph glyph-name="sterling" unicode="£" d="M13 76q0 27 11.5 44t27 26t32.5 12t29 3q23 0 43 -6.5t39 -17.5q8 22 8 39q0 26 -8 50.5t-20 46.5h-118q-13 0 -22 9t-9 22v2q0 13 9 22t22 9h74q-32 36 -49.5 76t-17.5 77q0 48 19.5 84.5t50.5 61.5t70.5 37.5t78.5 12.5q87 0 146.5 -38t73.5 -120q2 -13 -5 -23.5 t-20 -12.5l-25 -4q-18 -2 -26.5 3.5t-12.5 22.5q-5 17 -13.5 34.5t-23.5 31t-37 22t-53 8.5q-32 0 -54.5 -11t-37.5 -28t-22 -36.5t-7 -36.5q0 -24 7.5 -45t18.5 -40t24 -38t25 -38h161q13 0 22 -9t9 -22v-2q0 -13 -9 -22t-22 -9h-130q13 -45 13 -80q0 -23 -6 -43t-20 -42 q26 -13 51.5 -22.5t57.5 -9.5q37 0 57 22t27 54q4 16 12 23.5t26 7.5h23q13 0 21 -9.5t6 -21.5q-10 -69 -50.5 -113.5t-115.5 -44.5q-40 0 -79 18t-74 35q-22 -26 -47.5 -39.5t-60.5 -13.5q-42 0 -71 19.5t-29 62.5zM77 75q0 -13 12.5 -18t26.5 -5t28 6t20 17 q-10 7 -24.5 14.5t-27.5 7.5q-14 0 -24.5 -4t-10.5 -18z"></glyph><glyph glyph-name="currency" unicode="¤" d="M47 113q-10 8 -10 21t9 22l33 32q-24 31 -37 70t-13 82t13 82t37 70l-33 32q-9 9 -9 22t10 21l5 6q10 8 23 8t22 -9l32 -31q30 26 70 37t79 11t79 -11t70 -37l32 31q9 9 22 9t23 -8l5 -6q10 -8 10 -21t-9 -22l-33 -32q24 -31 37 -70t13 -82t-13 -82t-37 -70l33 -32 q9 -9 9 -22t-10 -21l-5 -6q-10 -8 -23 -8t-22 9l-32 31q-30 -26 -70 -37t-79 -11t-79 11t-70 37l-32 -31q-9 -9 -22 -9t-23 8zM278 155q41 0 74 14t56.5 38.5t36 58.5t12.5 74t-12.5 73.5t-36 58.5t-56.5 39t-74 14t-74 -14t-56.5 -39t-36 -58.5t-12.5 -73.5t12.5 -74 t36 -58.5t56.5 -38.5t74 -14z"></glyph><glyph glyph-name="yen" unicode="¥" d="M119 165q-11 0 -19.5 8.5t-8.5 19.5v2q0 11 8.5 19.5t19.5 8.5h118v85h-118q-11 0 -19.5 8.5t-8.5 19.5v2q0 11 8.5 19.5t19.5 8.5h85l-172 278q-6 9 -6 18q0 18 20 18h38q14 0 23.5 -7.5t17.5 -19.5l153 -255l153 255q8 12 16 19.5t22 7.5h41q12 0 18.5 -10t-4.5 -27 l-172 -277h85q11 0 19.5 -8.5t8.5 -19.5v-2q0 -11 -8.5 -19.5t-19.5 -8.5h-118v-85h118q11 0 19.5 -8.5t8.5 -19.5v-2q0 -11 -8.5 -19.5t-19.5 -8.5h-118v-134q0 -13 -9 -22t-22 -9h-20q-13 0 -22 9t-9 22v134h-118v0z"></glyph><glyph glyph-name="brokenbar" unicode="¦" d="M107 411q-13 0 -22 9t-9 22v188q0 13 9 22t22 9h8q13 0 22 -9t9 -22v-188q0 -13 -9 -22t-22 -9h-8zM76 130q0 13 9 22t22 9h8q13 0 22 -9t9 -22v-188q0 -13 -9 -22t-22 -9h-8q-13 0 -22 9t-9 22v188z"></glyph><glyph glyph-name="section" unicode="§" d="M84 -70q9 16 19.5 16t22.5 -6q37 -19 76 -32t81 -13q19 0 38 3t34.5 11.5t25.5 23.5t10 39q0 19 -11 34t-27 26t-34 20t-33 17l-133 69q-29 15 -52.5 31t-40 36.5t-25 47.5t-8.5 63q0 54 29.5 93t78.5 59q-28 23 -45 47.5t-17 62.5q0 39 18.5 68t47.5 47.5t64.5 27.5 t69.5 9q50 0 97.5 -15.5t90.5 -40.5q11 -6 14.5 -18.5t-2.5 -23.5l-11 -18q-7 -11 -18 -12.5t-22 5.5q-35 20 -72 33.5t-78 13.5q-17 0 -35.5 -3.5t-34 -12t-25.5 -22t-10 -33.5q0 -30 15 -42.5t39 -25.5l210 -108q51 -26 74.5 -59t23.5 -84q0 -61 -31 -103t-91 -56 q78 -44 78 -135q0 -38 -16 -66.5t-42 -47.5t-59.5 -28t-67.5 -9q-62 0 -112 12.5t-104 37.5q-11 5 -15.5 16.5t2.5 22.5zM328 149q20 3 40.5 11.5t36.5 21t26 29.5t10 38q0 31 -19 50.5t-42 31.5l-185 95q-6 -2 -19 -8t-26.5 -18.5t-24 -32t-10.5 -47.5q0 -35 23 -59.5 t53 -40.5z"></glyph><glyph glyph-name="dieresis" unicode="¨" d="M169 586q-13 0 -22 9t-9 22v38q0 13 9 22t22 9h26q13 0 22 -9t9 -22v-38q0 -13 -9 -22t-22 -9h-26zM9 586q-13 0 -22 9t-9 22v38q0 13 9 22t22 9h26q13 0 22 -9t9 -22v-38q0 -13 -9 -22t-22 -9h-26z"></glyph><glyph glyph-name="copyright" unicode="©" d="M26 356q0 78 29.5 146t80 118.5t118.5 80t146 29.5t146 -29.5t118.5 -80t80 -118.5t29.5 -146t-29.5 -146t-80 -118.5t-118.5 -80t-146 -29.5t-146 29.5t-118.5 80t-80 118.5t-29.5 146zM90 356q0 -65 24.5 -122t67 -100.5t99 -68.5t119.5 -25t119.5 25t99 68.5t67 100.5 t24.5 122q0 64 -24.5 121.5t-67 101t-99 68.5t-119.5 25t-119.5 -25t-99 -68.5t-67 -101t-24.5 -121.5zM192 357q0 50 15 93t43 74.5t68.5 49t90.5 17.5q63 0 113 -32.5t68 -92.5q7 -31 -23 -31h-16q-14 0 -19 6.5t-13 23.5q-11 28 -38 48t-71 20q-35 0 -62.5 -14.5 t-46.5 -38.5t-29 -56t-10 -66q0 -33 10.5 -65t29.5 -57t45 -40t58 -15q45 0 72.5 19.5t41.5 51.5q5 14 12 22t21 8h15q13 0 20.5 -7t2.5 -24q-17 -59 -66 -93.5t-119 -34.5q-47 0 -86 18t-67.5 49.5t-44 74t-15.5 92.5z"></glyph><glyph glyph-name="ordfeminine" unicode="ª" d="M119 385q-42 0 -70.5 23t-28.5 56q0 30 15 50q14 18 38 28t50 15.5t52 7t45 2.5v22q0 29 -15 40t-53 11q-23 0 -37.5 -6t-21.5 -21q-5 -11 -8 -17.5t-16 -5.5l-18 1q-10 1 -12 8.5t1 17.5q21 69 113 69q19 0 41 -3t41 -13t31 -27.5t12 -45.5v-119q0 -26 4 -36.5t18 -10.5 q17 0 17 -18v-13q0 -11 -13 -13q-5 -1 -8.5 -1.5t-7.5 -0.5q-20 0 -36 10.5t-23 33.5q-21 -23 -49 -33.5t-61 -10.5zM131 431q20 0 36.5 2t28 9t18 20.5t6.5 36.5v29q-31 -4 -57 -8.5t-45 -11t-29.5 -16.5t-10.5 -25q0 -22 16.5 -29t36.5 -7z"></glyph><glyph glyph-name="guillemotleft" unicode="«" d="M240 190q-16 13 -20 22.5t-4 28.5v26q0 10 1 17t3.5 12t7 10t12.5 12l88 77q4 3 9 3q6 0 10.5 -5.5t4.5 -18.5v-21q0 -20 -3.5 -29t-19.5 -23l-54 -47l54 -47q15 -14 19 -24t4 -28v-21q0 -14 -6 -18.5t-11 -4.5t-7 2zM79 190q-16 13 -20 22.5t-4 28.5v26q0 10 1 17 t3.5 12t7 10t12.5 12l88 77q4 3 9 3q6 0 10.5 -5.5t4.5 -18.5v-21q0 -20 -3.5 -29t-19.5 -23l-54 -47l54 -47q15 -14 19 -24t4 -28v-21q0 -14 -6 -18.5t-11 -4.5t-7 2z"></glyph><glyph glyph-name="logicalnot" unicode="¬" d="M78 317q-13 0 -22 9t-9 22v8q0 13 9 22t22 9h444q13 0 22 -9t9 -22v-217q0 -13 -9 -22t-22 -9h-8q-13 0 -22 9t-9 22v178h-405v0z"></glyph><glyph glyph-name="uni00AD" unicode="­" d="M77 213q-13 0 -22 9t-9 22v20q0 13 9 22t22 9h142q13 0 22 -9t9 -22v-20q0 -13 -9 -22t-22 -9h-142v0z"></glyph><glyph glyph-name="registered" unicode="®" d="M26 356q0 78 29.5 146t80 118.5t118.5 80t146 29.5t146 -29.5t118.5 -80t80 -118.5t29.5 -146t-29.5 -146t-80 -118.5t-118.5 -80t-146 -29.5t-146 29.5t-118.5 80t-80 118.5t-29.5 146zM90 356q0 -65 24.5 -122t67 -100.5t99 -68.5t119.5 -25t119.5 25t99 68.5t67 100.5 t24.5 122q0 64 -24.5 121.5t-67 101t-99 68.5t-119.5 25t-119.5 -25t-99 -68.5t-67 -101t-24.5 -121.5zM264 545q0 13 9 22t22 9h132q145 0 145 -123q0 -31 -9 -53t-24 -37t-34 -23.5t-40 -11.5l106 -166q9 -14 2.5 -20t-16.5 -6h-20q-14 0 -22 5.5t-17 20.5l-104 165h-66 v-160q0 -13 -5 -22t-18 -9h-18q-13 0 -18 9t-5 22v378zM404 385q23 0 42 2.5t33 9.5t21.5 20.5t7.5 35.5q0 35 -27.5 50t-70.5 15h-82v-133h76z"></glyph><glyph glyph-name="macron" unicode="¯" d="M-7 622q-11 0 -19.5 6t-8.5 17v10q0 11 8.5 18t19.5 7h218q11 0 19.5 -6t8.5 -17v-10q0 -11 -8.5 -18t-19.5 -7h-218v0z"></glyph><glyph glyph-name="degree" unicode="°" d="M200 400q-30 0 -56 11t-45.5 30.5t-30.5 45.5t-11 56t11 56t30.5 45.5t45.5 30.5t56 11t56 -11t45.5 -30.5t30.5 -45.5t11 -56t-11 -56t-30.5 -45.5t-45.5 -30.5t-56 -11zM200 452q17 0 33.5 8t29 20.5t20.5 29t8 33.5t-8 33.5t-20.5 29t-29 20.5t-33.5 8t-33.5 -8 t-29 -20.5t-20.5 -29t-8 -33.5t8 -33.5t20.5 -29t29 -20.5t33.5 -8z"></glyph><glyph glyph-name="plusminus" unicode="±" d="M78 269q-13 0 -22 9t-9 22v8q0 13 9 22t22 9h187v136q0 13 9 22t22 9h8q13 0 22 -9t9 -22v-136h187q13 0 22 -9t9 -22v-8q0 -13 -9 -22t-22 -9h-187v-135q0 -13 -9 -22t-22 -9h-8q-13 0 -22 9t-9 22v135h-187zM47 39q0 13 9 22t22 9h444q13 0 22 -9t9 -22v-8 q0 -13 -9 -22t-22 -9h-444q-13 0 -22 9t-9 22v8z"></glyph><glyph glyph-name="uni00B2" unicode="²" d="M60 274q-10 0 -15 6t-5 14v11q0 21 5.5 29t20.5 16q30 17 62 41t58.5 51t43.5 56t17 56q0 32 -19 50t-51 18q-20 0 -33 -6t-20.5 -15t-10.5 -20t-3 -20q0 -14 1 -20t1 -14q0 -17 -24 -17h-23q-10 0 -15.5 6.5t-7.5 16.5q-2 7 -2 13v13q0 55 33.5 91t107.5 36 q64 0 103 -35.5t39 -95.5q0 -38 -20 -72t-48 -62t-58.5 -48.5t-52.5 -32.5v-2h153q13 0 22 -9t9 -22v-2q0 -13 -9 -22t-22 -9h-237v0z"></glyph><glyph glyph-name="uni00B3" unicode="³" d="M182 268q-31 0 -58 7t-47 19q-22 13 -37.5 37.5t-15.5 51.5q0 10 5 17t16 7h18q18 0 24 -8.5t11 -22.5q10 -25 31 -34.5t54 -9.5q40 0 60.5 17.5t20.5 43.5q0 18 -7.5 29t-20 18t-27.5 9.5t-30 2.5q-19 0 -29.5 4.5t-10.5 20.5v10q0 22 12.5 25.5t29.5 3.5q7 0 19 1.5 t23.5 6.5t19.5 14.5t8 26.5q0 9 -1.5 19.5t-8.5 18.5t-20.5 13.5t-37.5 5.5q-32 0 -49 -13t-24 -34q-5 -14 -11 -22.5t-20 -7.5l-21 1q-12 1 -16.5 10.5t-2.5 21.5q9 54 44 81t101 27q38 0 65 -10.5t44.5 -27t25.5 -37.5t8 -41q0 -29 -12.5 -51.5t-39.5 -31.5v-2 q31 -12 48 -38.5t17 -58.5q0 -16 -5.5 -36.5t-22.5 -39t-48 -31.5t-82 -13z"></glyph><glyph glyph-name="acute" unicode="´" d="M77 572q-8 0 -13.5 5t-5.5 13q0 7 6 18l49 78q11 18 18.5 22.5t21.5 4.5h46q5 0 10 -4.5t5 -12.5q0 -7 -8 -17l-77 -84q-14 -16 -21 -19.5t-23 -3.5h-8v0z"></glyph><glyph glyph-name="uni00B5" unicode="µ" d="M145 -193q0 -13 -9 -22t-22 -9h-20q-13 0 -22 9t-9 22v640q0 13 9 22t22 9h20q13 0 22 -9t9 -22v-284q0 -17 5 -38t25 -38q10 -9 27 -16t44 -7q22 0 48 8q10 3 19 8t17 11q29 22 36.5 47.5t7.5 51.5v257q0 13 9 22t22 9h20q13 0 22 -9t9 -22v-343q0 -10 1 -18.5t4 -14.5 q5 -9 13.5 -11t16.5 -2t16 1.5t16 1.5t12.5 -5t4.5 -13v-22q0 -11 -8 -17.5t-19.5 -10t-25 -4.5t-24.5 -1q-18 0 -36.5 2.5t-32.5 18.5q-10 11 -15 26t-6 29q-14 -23 -39 -43q-44 -33 -102 -33q-13 0 -29 1t-32 8q-17 8 -26 15v-205z"></glyph><glyph glyph-name="paragraph" unicode="¶" d="M271 332q-45 0 -83.5 15t-66.5 40.5t-43.5 59.5t-15.5 73q0 97 59.5 144.5t165.5 47.5h197q13 0 22 -9t9 -22v-816q0 -11 -8 -19.5t-19 -8.5h-4q-11 0 -19 8.5t-8 19.5v801h-128v-801q0 -11 -8.5 -19.5t-19.5 -8.5h-4q-11 0 -18.5 8.5t-7.5 19.5v467z"></glyph><glyph glyph-name="periodcentered" unicode="·" d="M139 250q-25 0 -41 17t-16 43t16 42.5t41 16.5t41 -16.5t16 -42.5t-16 -43t-41 -17z"></glyph><glyph glyph-name="cedilla" unicode="¸" d="M140 0l-46 -62q15 4 32 4q34 0 58.5 -19t24.5 -55q0 -26 -12 -44t-29.5 -29t-37.5 -15.5t-35 -4.5q-24 0 -41.5 4t-39.5 11q-14 3 -14 16q0 3 2 7l5 11q4 8 12 8q3 0 5.5 -0.5t6.5 -1.5q11 -4 22 -6t24 -2q23 0 39.5 9.5t16.5 30.5t-13.5 30.5t-34.5 9.5q-17 0 -23.5 -3 t-11.5 -3t-11 6l-3 3q-4 4 -4 8t4 10l57 77h47z"></glyph><glyph glyph-name="uni00B9" unicode="¹" d="M191 274q-13 0 -22 9t-9 22v255h-63q-11 0 -18 7t-7 18v1q0 11 7 18.5t18 9.5q27 3 46 11.5t30 30.5q6 11 14.5 17.5t21.5 6.5h3q11 0 17.5 -7.5t6.5 -18.5v-349q0 -13 -9 -22t-22 -9h-14v0z"></glyph><glyph glyph-name="ordmasculine" unicode="º" d="M174 385q-70 0 -110.5 42t-40.5 108q0 33 10.5 60.5t30 47.5t47.5 31.5t63 11.5q36 0 64 -11.5t47.5 -31.5t30 -47.5t10.5 -60.5q0 -66 -40 -108t-112 -42zM174 431q27 0 44.5 10t27 25t13 33.5t3.5 35.5t-3.5 35.5t-13 34t-27 25.5t-44.5 10t-43.5 -10t-26.5 -25.5 t-13.5 -34t-3.5 -35.5t3.5 -35.5t13.5 -33.5t26.5 -25t43.5 -10z"></glyph><glyph glyph-name="guillemotright" unicode="»" d="M216 155q0 18 4 28t19 24l54 47l-54 47q-16 14 -19.5 23t-3.5 29v21q0 13 4.5 18.5t10.5 5.5q4 0 9 -3l88 -77l12 -12t7.5 -10t3.5 -12t1 -17v-26q0 -19 -4 -28.5t-20 -22.5l-88 -77q-2 -2 -7 -2t-11 4.5t-6 18.5v21zM72 111q-5 0 -11 4.5t-6 18.5v21q0 18 4 28t19 24 l54 47l-54 47q-16 14 -19.5 23t-3.5 29v21q0 13 4.5 18.5t10.5 5.5q4 0 9 -3l88 -77l12 -12t7.5 -10t3.5 -12t1 -17v-26q0 -19 -4 -28.5t-20 -22.5l-88 -77q-2 -2 -7 -2z"></glyph><glyph glyph-name="onequarter" unicode="¼" d="M174 274q-13 0 -22 9t-9 22v255h-63q-11 0 -18 7t-7 18v1q0 11 7 18.5t18 9.5q27 3 46 11.5t30 30.5q6 11 15 17.5t22 6.5h3q11 0 17 -7.5t6 -18.5v-349q0 -13 -9 -22t-22 -9h-14zM486 125q0 13 5 22.5t13 20.5l168 214q9 11 17 17.5t22 6.5h12q12 0 21 -9t9 -21v-228h23 q13 0 22 -9t9 -22v-2q0 -13 -9 -22t-22 -9h-23v-53q0 -13 -9 -22t-22 -9h-14q-13 0 -22 9t-9 22v53h-161q-13 0 -21.5 8.5t-8.5 21.5v11zM677 148v155h-2l-119 -155h121zM579 684q9 16 17 22t19 6h23q14 0 15 -8t-10 -28l-393 -680q-8 -12 -15.5 -20t-21.5 -8h-23 q-11 0 -14 6.5t5 21.5z"></glyph><glyph glyph-name="onehalf" unicode="½" d="M174 274q-13 0 -22 9t-9 22v255h-63q-11 0 -18 7t-7 18v1q0 11 7 18.5t18 9.5q27 3 46 11.5t30 30.5q6 11 13.5 17.5t20.5 6.5h6q11 0 17 -7.5t6 -18.5v-349q0 -13 -9 -22t-22 -9h-14zM532 684q9 16 17 22t19 6h23q14 0 15 -8t-10 -28l-393 -680q-8 -12 -15.5 -20 t-21.5 -8h-23q-11 0 -14 6.5t5 21.5zM494 0q-10 0 -15 6t-5 14v11q0 21 5.5 29t20.5 16q30 17 62 41t58.5 51t43.5 56t17 56q0 32 -19 50t-51 18q-20 0 -33 -6t-20.5 -15t-10.5 -20t-3 -20q0 -14 1 -20t1 -14q0 -17 -24 -17h-23q-10 0 -15.5 6.5t-7.5 16.5q-2 7 -2 13v13 q0 55 33.5 91t107.5 36q64 0 103 -35.5t39 -95.5q0 -38 -20 -72t-48 -62t-58.5 -48.5t-52.5 -32.5v-2h153q13 0 22 -9t9 -22v-2q0 -13 -9 -22t-22 -9h-237z"></glyph><glyph glyph-name="threequarters" unicode="¾" d="M486 125q0 13 5 22.5t13 20.5l168 214q9 11 17 17.5t22 6.5h12q12 0 21 -9t9 -21v-228h23q13 0 22 -9t9 -22v-2q0 -13 -9 -22t-22 -9h-23v-53q0 -13 -9 -22t-22 -9h-14q-13 0 -22 9t-9 22v53h-161q-13 0 -21.5 8.5t-8.5 21.5v11zM677 148v155h-2l-119 -155h121zM639 684 q9 16 17 22t19 6h23q14 0 15 -8t-10 -28l-393 -680q-8 -12 -15.5 -20t-21.5 -8h-23q-11 0 -14 6.5t5 21.5zM216 268q-31 0 -58 7t-47 19q-22 13 -37.5 37.5t-15.5 51.5q0 10 5 17t16 7h18q18 0 24 -8.5t11 -22.5q10 -25 31 -34.5t54 -9.5q40 0 60.5 17.5t20.5 43.5 q0 18 -7.5 29t-20 18t-27.5 9.5t-30 2.5q-19 0 -29.5 4.5t-10.5 20.5v10q0 22 12.5 25.5t29.5 3.5q7 0 19 1.5t23.5 6.5t19.5 14.5t8 26.5q0 9 -1.5 19.5t-8.5 18.5t-20.5 13.5t-37.5 5.5q-32 0 -49 -13t-24 -34q-5 -14 -11 -22.5t-20 -7.5l-21 1q-12 1 -16.5 10.5 t-2.5 21.5q9 54 44 81t101 27q38 0 65 -10.5t44.5 -27t25.5 -37.5t8 -41q0 -29 -12.5 -51.5t-39.5 -31.5v-2q31 -12 48 -38.5t17 -58.5q0 -16 -5.5 -36.5t-22.5 -39t-48 -31.5t-82 -13z"></glyph><glyph glyph-name="questiondown" unicode="¿" d="M332 136q0 -19 -7.5 -29.5t-29.5 -10.5q-86 0 -120.5 -35t-34.5 -95q0 -26 11 -49t30 -40t44.5 -27t53.5 -10q70 0 104.5 35.5t42.5 99.5q2 13 8.5 22t20.5 9h28q20 0 26.5 -13t4.5 -25q-5 -53 -26 -91.5t-52.5 -63.5t-70 -37t-77.5 -12q-47 0 -88.5 14t-73 41t-50 67 t-18.5 93q0 43 14 79t39.5 62t60.5 41t78 17v125q0 13 9 22t22 9h20q13 0 22 -9t9 -22v-167zM335 425q0 -17 -9 -24t-22 -7h-26q-13 0 -22 7t-9 24v32q0 17 9 24t22 7h26q13 0 22 -7t9 -24v-32z"></glyph><glyph glyph-name="Agrave" unicode="À" d="M270 683q5 13 16.5 21t25.5 8h38q14 0 25.5 -8t16.5 -21l234 -649q6 -16 -0.5 -25t-22.5 -9h-40q-14 0 -22 8t-13 22l-66 188h-270l-71 -189q-5 -13 -13.5 -21t-22.5 -8h-40q-16 0 -22.5 9t-0.5 25zM433 300l-103 295l-109 -295h212zM341 761q-16 0 -23 3.5t-21 19.5 l-77 84q-8 10 -8 17q0 8 5 12.5t10 4.5h46q14 0 21.5 -4.5t18.5 -22.5l49 -78q6 -11 6 -18q0 -8 -5.5 -13t-13.5 -5h-8z"></glyph><glyph glyph-name="Aacute" unicode="Á" d="M270 683q5 13 16.5 21t25.5 8h38q14 0 25.5 -8t16.5 -21l234 -649q6 -16 -0.5 -25t-22.5 -9h-40q-14 0 -22 8t-13 22l-66 188h-270l-71 -189q-5 -13 -13.5 -21t-22.5 -8h-40q-16 0 -22.5 9t-0.5 25zM433 300l-103 295l-109 -295h212zM299 761q-8 0 -13.5 5t-5.5 13 q0 7 6 18l49 78q11 18 18.5 22.5t21.5 4.5h46q5 0 10 -4.5t5 -12.5q0 -7 -8 -17l-77 -84q-14 -16 -21 -19.5t-23 -3.5h-8z"></glyph><glyph glyph-name="Acircumflex" unicode="Â" d="M270 683q5 13 16.5 21t25.5 8h38q14 0 25.5 -8t16.5 -21l234 -649q6 -16 -0.5 -25t-22.5 -9h-40q-14 0 -22 8t-13 22l-66 188h-270l-71 -189q-5 -13 -13.5 -21t-22.5 -8h-40q-16 0 -22.5 9t-0.5 25zM433 300l-103 295l-109 -295h212zM209 761q-6 0 -10.5 3.5t-4.5 10.5 q0 8 7 18l58 83q11 16 19.5 21t29.5 5h30q21 0 29.5 -4.5t19.5 -20.5l59 -84q7 -11 7 -19q0 -13 -14 -13h-19q-21 0 -29 4t-20 22l-48 69l-48 -69q-6 -9 -10.5 -14.5t-8.5 -8t-9 -3t-13 -0.5h-25z"></glyph><glyph glyph-name="Atilde" unicode="Ã" d="M270 683q5 13 16.5 21t25.5 8h38q14 0 25.5 -8t16.5 -21l234 -649q6 -16 -0.5 -25t-22.5 -9h-40q-14 0 -22 8t-13 22l-66 188h-270l-71 -189q-5 -13 -13.5 -21t-22.5 -8h-40q-16 0 -22.5 9t-0.5 25zM433 300l-103 295l-109 -295h212zM169 770q-8 0 -11 6t-1 15 q8 37 33.5 62t67.5 25q20 0 39 -5.5t36 -12.5q17 -8 32.5 -13.5t26.5 -5.5q17 0 29.5 5.5t19.5 17.5q5 10 7.5 16t14.5 6h16q8 0 10 -7t0 -16q-9 -35 -33.5 -60.5t-65.5 -25.5q-15 0 -34.5 6t-39.5 14q-20 7 -38 12t-32 5q-11 0 -21 -6.5t-16 -15.5q-7 -10 -11.5 -16 t-16.5 -6h-12z"></glyph><glyph glyph-name="Adieresis" unicode="Ä" d="M270 683q5 13 16.5 21t25.5 8h38q14 0 25.5 -8t16.5 -21l234 -649q6 -16 -0.5 -25t-22.5 -9h-40q-14 0 -22 8t-13 22l-66 188h-270l-71 -189q-5 -13 -13.5 -21t-22.5 -8h-40q-16 0 -22.5 9t-0.5 25zM433 300l-103 295l-109 -295h212zM391 775q-13 0 -22 9t-9 22v38 q0 13 9 22t22 9h26q13 0 22 -9t9 -22v-38q0 -13 -9 -22t-22 -9h-26zM231 775q-13 0 -22 9t-9 22v38q0 13 9 22t22 9h26q13 0 22 -9t9 -22v-38q0 -13 -9 -22t-22 -9h-26z"></glyph><glyph glyph-name="Aring" unicode="Å" d="M270 683q5 13 16.5 21t25.5 8h38q14 0 25.5 -8t16.5 -21l234 -649q6 -16 -0.5 -25t-22.5 -9h-40q-14 0 -22 8t-13 22l-66 188h-270l-71 -189q-5 -13 -13.5 -21t-22.5 -8h-40q-16 0 -22.5 9t-0.5 25zM433 300l-103 295l-109 -295h212zM331 734q-21 0 -39.5 8t-32.5 22 t-22 32.5t-8 39.5t8 39.5t22 32.5t32.5 22t39.5 8t39.5 -8t32.5 -22t22 -32.5t8 -39.5t-8 -39.5t-22 -32.5t-32.5 -22t-39.5 -8zM331 774q25 0 43.5 19t18.5 43t-18.5 43t-43.5 19t-43.5 -19t-18.5 -43t18.5 -43t43.5 -19z"></glyph><glyph glyph-name="AE" unicode="Æ" d="M40 0q-14 0 -19.5 11t4.5 25l440 650q8 12 17.5 19t23.5 7h486q13 0 22 -9t9 -22v-20q0 -13 -9 -22t-22 -9h-379v-232h281q13 0 22 -9t9 -22v-20q0 -13 -9 -22t-22 -9h-281v-234h395q13 0 22 -9t9 -22v-20q0 -13 -9 -22t-22 -9h-458q-13 0 -22 9t-9 22v203h-253 l-140 -208q-8 -12 -17 -19t-23 -7h-46zM519 316v302h-2l-196 -302h198z"></glyph><glyph glyph-name="Ccedilla" unicode="Ç" d="M374 -16q-76 5 -136 34t-102 77.5t-64.5 115t-22.5 145.5q0 83 24.5 152t71 118.5t113 76.5t149.5 27q107 0 190.5 -46.5t121.5 -141.5q5 -14 -0.5 -24.5t-21.5 -13.5l-32 -6q-17 -3 -27.5 4t-15.5 20q-26 60 -84.5 96t-130.5 36q-66 0 -114.5 -24.5t-80 -65.5t-46.5 -95 t-15 -113t15 -113t46.5 -95t80 -65.5t114.5 -24.5q85 0 145 48t82 132q3 13 11.5 21t27.5 6l31 -4q19 -2 25 -13t1 -27q-13 -45 -41 -87t-68 -75t-91 -53.5t-109 -22.5l-34 -45q15 4 32 4q34 0 58.5 -19t24.5 -55q0 -26 -12 -44t-29.5 -29t-37.5 -15.5t-35 -4.5 q-24 0 -41.5 4t-39.5 11q-14 3 -14 16q0 3 2 7l5 11q4 8 12 8q3 0 5.5 -0.5t6.5 -1.5q11 -4 22 -6t24 -2q23 0 39.5 9.5t16.5 30.5t-13.5 30.5t-34.5 9.5q-17 0 -23.5 -3t-11.5 -3t-11 6l-3 3q-4 4 -4 8t4 10z"></glyph><glyph glyph-name="Egrave" unicode="È" d="M71 681q0 13 9 22t22 9h438q13 0 22 -9t9 -22v-20q0 -13 -9 -22t-22 -9h-375v-220h322q13 0 22 -9t9 -22v-20q0 -13 -9 -22t-22 -9h-322v-246h385q13 0 22 -9t9 -22v-20q0 -13 -9 -22t-22 -9h-448q-13 0 -22 9t-9 22v650zM323 761q-16 0 -23 3.5t-21 19.5l-77 84 q-8 10 -8 17q0 8 5 12.5t10 4.5h46q14 0 21.5 -4.5t18.5 -22.5l49 -78q6 -11 6 -18q0 -8 -5.5 -13t-13.5 -5h-8z"></glyph><glyph glyph-name="Eacute" unicode="É" d="M71 681q0 13 9 22t22 9h438q13 0 22 -9t9 -22v-20q0 -13 -9 -22t-22 -9h-375v-220h322q13 0 22 -9t9 -22v-20q0 -13 -9 -22t-22 -9h-322v-246h385q13 0 22 -9t9 -22v-20q0 -13 -9 -22t-22 -9h-448q-13 0 -22 9t-9 22v650zM281 761q-8 0 -13.5 5t-5.5 13q0 7 6 18l49 78 q11 18 18.5 22.5t21.5 4.5h46q5 0 10 -4.5t5 -12.5q0 -7 -8 -17l-77 -84q-14 -16 -21 -19.5t-23 -3.5h-8z"></glyph><glyph glyph-name="Ecircumflex" unicode="Ê" d="M71 681q0 13 9 22t22 9h438q13 0 22 -9t9 -22v-20q0 -13 -9 -22t-22 -9h-375v-220h322q13 0 22 -9t9 -22v-20q0 -13 -9 -22t-22 -9h-322v-246h385q13 0 22 -9t9 -22v-20q0 -13 -9 -22t-22 -9h-448q-13 0 -22 9t-9 22v650zM191 761q-6 0 -10.5 3.5t-4.5 10.5q0 8 7 18 l58 83q11 16 19.5 21t29.5 5h30q21 0 29.5 -4.5t19.5 -20.5l59 -84q7 -11 7 -19q0 -13 -14 -13h-19q-21 0 -29 4t-20 22l-48 69l-48 -69q-6 -9 -10.5 -14.5t-8.5 -8t-9 -3t-13 -0.5h-25z"></glyph><glyph glyph-name="Edieresis" unicode="Ë" d="M71 681q0 13 9 22t22 9h438q13 0 22 -9t9 -22v-20q0 -13 -9 -22t-22 -9h-375v-220h322q13 0 22 -9t9 -22v-20q0 -13 -9 -22t-22 -9h-322v-246h385q13 0 22 -9t9 -22v-20q0 -13 -9 -22t-22 -9h-448q-13 0 -22 9t-9 22v650zM373 775q-13 0 -22 9t-9 22v38q0 13 9 22t22 9 h26q13 0 22 -9t9 -22v-38q0 -13 -9 -22t-22 -9h-26zM213 775q-13 0 -22 9t-9 22v38q0 13 9 22t22 9h26q13 0 22 -9t9 -22v-38q0 -13 -9 -22t-22 -9h-26z"></glyph><glyph glyph-name="Igrave" unicode="Ì" d="M82 681q0 13 9 22t22 9h32q13 0 22 -9t9 -22v-650q0 -13 -9 -22t-22 -9h-32q-13 0 -22 9t-9 22v650zM146 761q-16 0 -23 3.5t-21 19.5l-77 84q-8 10 -8 17q0 8 5 12.5t10 4.5h46q14 0 21.5 -4.5t18.5 -22.5l49 -78q6 -11 6 -18q0 -8 -5.5 -13t-13.5 -5h-8z"></glyph><glyph glyph-name="Iacute" unicode="Í" d="M82 681q0 13 9 22t22 9h32q13 0 22 -9t9 -22v-650q0 -13 -9 -22t-22 -9h-32q-13 0 -22 9t-9 22v650zM104 761q-8 0 -13.5 5t-5.5 13q0 7 6 18l49 78q11 18 18.5 22.5t21.5 4.5h46q5 0 10 -4.5t5 -12.5q0 -7 -8 -17l-77 -84q-14 -16 -21 -19.5t-23 -3.5h-8z"></glyph><glyph glyph-name="Icircumflex" unicode="Î" d="M82 681q0 13 9 22t22 9h32q13 0 22 -9t9 -22v-650q0 -13 -9 -22t-22 -9h-32q-13 0 -22 9t-9 22v650zM14 761q-6 0 -10.5 3.5t-4.5 10.5q0 8 7 18l58 83q11 16 19.5 21t29.5 5h30q21 0 29.5 -4.5t19.5 -20.5l59 -84q7 -11 7 -19q0 -13 -14 -13h-19q-21 0 -29 4t-20 22 l-48 69l-48 -69q-6 -9 -10.5 -14.5t-8.5 -8t-9 -3t-13 -0.5h-25z"></glyph><glyph glyph-name="Idieresis" unicode="Ï" d="M82 681q0 13 9 22t22 9h32q13 0 22 -9t9 -22v-650q0 -13 -9 -22t-22 -9h-32q-13 0 -22 9t-9 22v650zM196 775q-13 0 -22 9t-9 22v38q0 13 9 22t22 9h26q13 0 22 -9t9 -22v-38q0 -13 -9 -22t-22 -9h-26zM36 775q-13 0 -22 9t-9 22v38q0 13 9 22t22 9h26q13 0 22 -9t9 -22 v-38q0 -13 -9 -22t-22 -9h-26z"></glyph><glyph glyph-name="Eth" unicode="Ð" d="M71 340h-37q-13 0 -22 9t-9 22v8q0 13 9 22t22 9h37v271q0 13 9 22t22 9h238q81 0 140.5 -26t98.5 -73.5t57.5 -114t18.5 -146.5q0 -76 -19.5 -140.5t-58.5 -111.5t-98.5 -73.5t-138.5 -26.5h-238q-13 0 -22 9t-9 22v309zM324 82q63 0 107 20.5t71 57t39 88t12 113.5 q0 61 -12.5 110.5t-39 84.5t-68.5 54.5t-101 19.5h-167v-220h173q13 0 22 -9t9 -22v-8q0 -13 -9 -22t-22 -9h-173v-258h159z"></glyph><glyph glyph-name="Ntilde" unicode="Ñ" d="M71 681q0 13 9 22t22 9h36q27 0 45 -26l360 -536h2v531q0 13 9 22t22 9h26q13 0 22 -9t9 -22v-650q0 -13 -9 -22t-22 -9h-35q-28 0 -46 26l-360 535h-2v-530q0 -13 -9 -22t-22 -9h-26q-13 0 -22 9t-9 22v650zM197 770q-8 0 -11 6t-1 15q8 37 33.5 62t67.5 25 q20 0 39 -5.5t36 -12.5q17 -8 32.5 -13.5t26.5 -5.5q17 0 29.5 5.5t19.5 17.5q5 10 7.5 16t14.5 6h16q8 0 10 -7t0 -16q-9 -35 -33.5 -60.5t-65.5 -25.5q-15 0 -34.5 6t-39.5 14q-20 7 -38 12t-32 5q-11 0 -21 -6.5t-16 -15.5q-7 -10 -11.5 -16t-16.5 -6h-12z"></glyph><glyph glyph-name="Ograve" unicode="Ò" d="M49 356q0 83 24.5 152t71 118.5t113 76.5t149.5 27t149.5 -27t113 -76.5t71 -118.5t24.5 -152t-24.5 -152t-71 -118.5t-113 -76.5t-149.5 -27t-149.5 27t-113 76.5t-71 118.5t-24.5 152zM151 356q0 -59 15 -113t46.5 -95t80 -65.5t114.5 -24.5t114 24.5t79.5 65.5t47 95 t15.5 113t-15.5 113t-47 95t-79.5 65.5t-114 24.5t-114.5 -24.5t-80 -65.5t-46.5 -95t-15 -113zM424 761q-16 0 -23 3.5t-21 19.5l-77 84q-8 10 -8 17q0 8 5 12.5t10 4.5h46q14 0 21.5 -4.5t18.5 -22.5l49 -78q6 -11 6 -18q0 -8 -5.5 -13t-13.5 -5h-8z"></glyph><glyph glyph-name="Oacute" unicode="Ó" d="M49 356q0 83 24.5 152t71 118.5t113 76.5t149.5 27t149.5 -27t113 -76.5t71 -118.5t24.5 -152t-24.5 -152t-71 -118.5t-113 -76.5t-149.5 -27t-149.5 27t-113 76.5t-71 118.5t-24.5 152zM151 356q0 -59 15 -113t46.5 -95t80 -65.5t114.5 -24.5t114 24.5t79.5 65.5t47 95 t15.5 113t-15.5 113t-47 95t-79.5 65.5t-114 24.5t-114.5 -24.5t-80 -65.5t-46.5 -95t-15 -113zM382 761q-8 0 -13.5 5t-5.5 13q0 7 6 18l49 78q11 18 18.5 22.5t21.5 4.5h46q5 0 10 -4.5t5 -12.5q0 -7 -8 -17l-77 -84q-14 -16 -21 -19.5t-23 -3.5h-8z"></glyph><glyph glyph-name="Ocircumflex" unicode="Ô" d="M49 356q0 83 24.5 152t71 118.5t113 76.5t149.5 27t149.5 -27t113 -76.5t71 -118.5t24.5 -152t-24.5 -152t-71 -118.5t-113 -76.5t-149.5 -27t-149.5 27t-113 76.5t-71 118.5t-24.5 152zM151 356q0 -59 15 -113t46.5 -95t80 -65.5t114.5 -24.5t114 24.5t79.5 65.5t47 95 t15.5 113t-15.5 113t-47 95t-79.5 65.5t-114 24.5t-114.5 -24.5t-80 -65.5t-46.5 -95t-15 -113zM292 761q-6 0 -10.5 3.5t-4.5 10.5q0 8 7 18l58 83q11 16 19.5 21t29.5 5h30q21 0 29.5 -4.5t19.5 -20.5l59 -84q7 -11 7 -19q0 -13 -14 -13h-19q-21 0 -29 4t-20 22l-48 69 l-48 -69q-6 -9 -10.5 -14.5t-8.5 -8t-9 -3t-13 -0.5h-25z"></glyph><glyph glyph-name="Otilde" unicode="Õ" d="M49 356q0 83 24.5 152t71 118.5t113 76.5t149.5 27t149.5 -27t113 -76.5t71 -118.5t24.5 -152t-24.5 -152t-71 -118.5t-113 -76.5t-149.5 -27t-149.5 27t-113 76.5t-71 118.5t-24.5 152zM151 356q0 -59 15 -113t46.5 -95t80 -65.5t114.5 -24.5t114 24.5t79.5 65.5t47 95 t15.5 113t-15.5 113t-47 95t-79.5 65.5t-114 24.5t-114.5 -24.5t-80 -65.5t-46.5 -95t-15 -113zM252 770q-8 0 -11 6t-1 15q8 37 33.5 62t67.5 25q20 0 39 -5.5t36 -12.5q17 -8 32.5 -13.5t26.5 -5.5q17 0 29.5 5.5t19.5 17.5q5 10 7.5 16t14.5 6h16q8 0 10 -7t0 -16 q-9 -35 -33.5 -60.5t-65.5 -25.5q-15 0 -34.5 6t-39.5 14q-20 7 -38 12t-32 5q-11 0 -21 -6.5t-16 -15.5q-7 -10 -11.5 -16t-16.5 -6h-12z"></glyph><glyph glyph-name="Odieresis" unicode="Ö" d="M49 356q0 83 24.5 152t71 118.5t113 76.5t149.5 27t149.5 -27t113 -76.5t71 -118.5t24.5 -152t-24.5 -152t-71 -118.5t-113 -76.5t-149.5 -27t-149.5 27t-113 76.5t-71 118.5t-24.5 152zM151 356q0 -59 15 -113t46.5 -95t80 -65.5t114.5 -24.5t114 24.5t79.5 65.5t47 95 t15.5 113t-15.5 113t-47 95t-79.5 65.5t-114 24.5t-114.5 -24.5t-80 -65.5t-46.5 -95t-15 -113zM474 775q-13 0 -22 9t-9 22v38q0 13 9 22t22 9h26q13 0 22 -9t9 -22v-38q0 -13 -9 -22t-22 -9h-26zM314 775q-13 0 -22 9t-9 22v38q0 13 9 22t22 9h26q13 0 22 -9t9 -22v-38 q0 -13 -9 -22t-22 -9h-26z"></glyph><glyph glyph-name="multiply" unicode="×" d="M91 49q-9 9 -9 22t9 22l160 160l-160 160q-9 9 -9.5 21.5t8.5 21.5l7 7q9 9 22 8.5t22 -9.5l159 -159l160 159q9 9 22 9t22 -9l5 -5q9 -9 9 -22t-9 -22l-159 -160l159 -160q9 -9 9 -22t-9 -22l-5 -5q-9 -9 -22 -9t-22 9l-160 160l-159 -160q-9 -9 -22 -9t-22 9l-6 5v0z "></glyph><glyph glyph-name="Oslash" unicode="Ø" d="M67 37q-9 9 -9 22t10 22l46 44q-65 95 -65 231q0 83 24.5 152t71 118.5t113 76.5t149.5 27q78 0 139 -23t106 -65l46 44q9 9 22 9t22 -9l6 -5q9 -9 9 -22t-10 -22l-49 -47q67 -94 67 -234q0 -83 -24.5 -152t-71 -118.5t-113 -76.5t-149.5 -27q-78 0 -138.5 23t-108.5 66 l-42 -40q-10 -9 -23 -9t-22 9zM587 580q-32 35 -76 54.5t-104 19.5q-66 0 -114.5 -24.5t-80 -65.5t-46.5 -95t-15 -113q0 -45 8.5 -86t25.5 -76zM225 134q32 -35 77 -55.5t105 -20.5q66 0 114 24.5t79.5 65.5t47 95t15.5 113q0 92 -36 166z"></glyph><glyph glyph-name="Ugrave" unicode="Ù" d="M71 681q0 13 9 22t22 9h32q13 0 22 -9t9 -22v-431q0 -94 41.5 -140t135.5 -46t135.5 46t41.5 140v431q0 13 9 22t22 9h32q13 0 22 -9t9 -22v-447q0 -61 -19 -108t-54 -79t-85 -48.5t-113 -16.5t-113 16.5t-85 48.5t-54 79t-19 108v447zM359 761q-16 0 -23 3.5t-21 19.5 l-77 84q-8 10 -8 17q0 8 5 12.5t10 4.5h46q14 0 21.5 -4.5t18.5 -22.5l49 -78q6 -11 6 -18q0 -8 -5.5 -13t-13.5 -5h-8z"></glyph><glyph glyph-name="Uacute" unicode="Ú" d="M71 681q0 13 9 22t22 9h32q13 0 22 -9t9 -22v-431q0 -94 41.5 -140t135.5 -46t135.5 46t41.5 140v431q0 13 9 22t22 9h32q13 0 22 -9t9 -22v-447q0 -61 -19 -108t-54 -79t-85 -48.5t-113 -16.5t-113 16.5t-85 48.5t-54 79t-19 108v447zM317 761q-8 0 -13.5 5t-5.5 13 q0 7 6 18l49 78q11 18 18.5 22.5t21.5 4.5h46q5 0 10 -4.5t5 -12.5q0 -7 -8 -17l-77 -84q-14 -16 -21 -19.5t-23 -3.5h-8z"></glyph><glyph glyph-name="Ucircumflex" unicode="Û" d="M71 681q0 13 9 22t22 9h32q13 0 22 -9t9 -22v-431q0 -94 41.5 -140t135.5 -46t135.5 46t41.5 140v431q0 13 9 22t22 9h32q13 0 22 -9t9 -22v-447q0 -61 -19 -108t-54 -79t-85 -48.5t-113 -16.5t-113 16.5t-85 48.5t-54 79t-19 108v447zM227 761q-6 0 -10.5 3.5t-4.5 10.5 q0 8 7 18l58 83q11 16 19.5 21t29.5 5h30q21 0 29.5 -4.5t19.5 -20.5l59 -84q7 -11 7 -19q0 -13 -14 -13h-19q-21 0 -29 4t-20 22l-48 69l-48 -69q-6 -9 -10.5 -14.5t-8.5 -8t-9 -3t-13 -0.5h-25z"></glyph><glyph glyph-name="Udieresis" unicode="Ü" d="M71 681q0 13 9 22t22 9h32q13 0 22 -9t9 -22v-431q0 -94 41.5 -140t135.5 -46t135.5 46t41.5 140v431q0 13 9 22t22 9h32q13 0 22 -9t9 -22v-447q0 -61 -19 -108t-54 -79t-85 -48.5t-113 -16.5t-113 16.5t-85 48.5t-54 79t-19 108v447zM409 775q-13 0 -22 9t-9 22v38 q0 13 9 22t22 9h26q13 0 22 -9t9 -22v-38q0 -13 -9 -22t-22 -9h-26zM249 775q-13 0 -22 9t-9 22v38q0 13 9 22t22 9h26q13 0 22 -9t9 -22v-38q0 -13 -9 -22t-22 -9h-26z"></glyph><glyph glyph-name="Yacute" unicode="Ý" d="M267 328l-232 348q-11 17 -3.5 26.5t23.5 9.5h38q20 0 28.5 -5t19.5 -21l173 -269l173 269q10 16 18.5 21t29.5 5h42q16 0 21.5 -10t-6.5 -28l-231 -346v-297q0 -13 -9 -22t-22 -9h-32q-13 0 -22 9t-9 22v297zM289 761q-8 0 -13.5 5t-5.5 13q0 7 6 18l49 78 q11 18 18.5 22.5t21.5 4.5h46q5 0 10 -4.5t5 -12.5q0 -7 -8 -17l-77 -84q-14 -16 -21 -19.5t-23 -3.5h-8z"></glyph><glyph glyph-name="Thorn" unicode="Þ" d="M71 681q0 13 9 22t22 9h32q13 0 22 -9t9 -22v-73h262q32 0 65 -10t60 -34t44 -63.5t17 -97.5q0 -53 -17.5 -91t-45 -63t-62.5 -37t-69 -12h-254v-169q0 -13 -9 -22t-22 -9h-32q-13 0 -22 9t-9 22v650zM383 282q61 0 98.5 28.5t37.5 93.5q0 60 -28.5 91t-94.5 31h-231 v-244h218z"></glyph><glyph glyph-name="germandbls" unicode="ß" d="M63 532q0 96 50 147t144 51q44 0 80 -9.5t61 -30t38.5 -52.5t13.5 -77t-22 -81t-64 -52v-2q37 -8 64 -25.5t44 -42.5t25 -56t8 -65q0 -36 -6.5 -79.5t-29 -81t-66 -63t-116.5 -25.5q-8 0 -23.5 1t-31 5t-27.5 11.5t-12 19.5v16q0 17 3.5 25t17.5 8q15 0 31.5 -5t48.5 -5 q63 0 96 43.5t33 121.5q0 46 -15.5 75.5t-41.5 47t-61 24.5t-74 9q-13 1 -22 8t-9 20v23q0 14 10 20t25 6q25 0 48.5 4.5t42.5 15.5t30.5 30t11.5 49q0 28 -8.5 46t-23.5 28.5t-35 14.5t-43 4q-60 0 -86.5 -33.5t-26.5 -84.5v-505q0 -13 -9 -22t-22 -9h-20q-13 0 -22 9 t-9 22v501z"></glyph><glyph glyph-name="agrave" unicode="à" d="M28 120q0 49 21.5 80t62 49t99 26t132.5 12v42q0 51 -24.5 74t-87.5 23q-78 0 -94 -67q-3 -14 -11 -22t-23 -7l-21 1q-15 1 -21.5 12.5t-1.5 31.5q14 59 59.5 87t113.5 28q30 0 64 -5.5t62.5 -21.5t47.5 -45t19 -76v-226q0 -50 36 -50h7q11 0 14 -7t3 -15v-18 q0 -20 -16.5 -25t-34.5 -5q-37 0 -56 16t-27 50q-68 -74 -170 -74q-32 0 -60 10t-48.5 28t-32.5 42t-12 52zM116 125q0 -22 9 -36t22.5 -22.5t29.5 -11.5t31 -3q58 0 96.5 33t38.5 93v55q-50 -7 -92 -14.5t-72 -19t-46.5 -29t-16.5 -45.5zM267 572q-16 0 -23 3.5t-21 19.5 l-77 84q-8 10 -8 17q0 8 5 12.5t10 4.5h46q14 0 21.5 -4.5t18.5 -22.5l49 -78q6 -11 6 -18q0 -8 -5.5 -13t-13.5 -5h-8z"></glyph><glyph glyph-name="aacute" unicode="á" d="M28 120q0 49 21.5 80t62 49t99 26t132.5 12v42q0 51 -24.5 74t-87.5 23q-78 0 -94 -67q-3 -14 -11 -22t-23 -7l-21 1q-15 1 -21.5 12.5t-1.5 31.5q14 59 59.5 87t113.5 28q30 0 64 -5.5t62.5 -21.5t47.5 -45t19 -76v-226q0 -50 36 -50h7q11 0 14 -7t3 -15v-18 q0 -20 -16.5 -25t-34.5 -5q-37 0 -56 16t-27 50q-68 -74 -170 -74q-32 0 -60 10t-48.5 28t-32.5 42t-12 52zM116 125q0 -22 9 -36t22.5 -22.5t29.5 -11.5t31 -3q58 0 96.5 33t38.5 93v55q-50 -7 -92 -14.5t-72 -19t-46.5 -29t-16.5 -45.5zM225 572q-8 0 -13.5 5t-5.5 13 q0 7 6 18l49 78q11 18 18.5 22.5t21.5 4.5h46q5 0 10 -4.5t5 -12.5q0 -7 -8 -17l-77 -84q-14 -16 -21 -19.5t-23 -3.5h-8z"></glyph><glyph glyph-name="acircumflex" unicode="â" d="M28 120q0 49 21.5 80t62 49t99 26t132.5 12v42q0 51 -24.5 74t-87.5 23q-78 0 -94 -67q-3 -14 -11 -22t-23 -7l-21 1q-15 1 -21.5 12.5t-1.5 31.5q14 59 59.5 87t113.5 28q30 0 64 -5.5t62.5 -21.5t47.5 -45t19 -76v-226q0 -50 36 -50h7q11 0 14 -7t3 -15v-18 q0 -20 -16.5 -25t-34.5 -5q-37 0 -56 16t-27 50q-68 -74 -170 -74q-32 0 -60 10t-48.5 28t-32.5 42t-12 52zM116 125q0 -22 9 -36t22.5 -22.5t29.5 -11.5t31 -3q58 0 96.5 33t38.5 93v55q-50 -7 -92 -14.5t-72 -19t-46.5 -29t-16.5 -45.5zM135 572q-6 0 -10.5 3.5t-4.5 10.5 q0 8 7 18l58 83q11 16 19.5 21t29.5 5h30q21 0 29.5 -4.5t19.5 -20.5l59 -84q7 -11 7 -19q0 -13 -14 -13h-19q-21 0 -29 4t-20 22l-48 69l-48 -69q-6 -9 -10.5 -14.5t-8.5 -8t-9 -3t-13 -0.5h-25z"></glyph><glyph glyph-name="atilde" unicode="ã" d="M28 120q0 49 21.5 80t62 49t99 26t132.5 12v42q0 51 -24.5 74t-87.5 23q-78 0 -94 -67q-3 -14 -11 -22t-23 -7l-21 1q-15 1 -21.5 12.5t-1.5 31.5q14 59 59.5 87t113.5 28q30 0 64 -5.5t62.5 -21.5t47.5 -45t19 -76v-226q0 -50 36 -50h7q11 0 14 -7t3 -15v-18 q0 -20 -16.5 -25t-34.5 -5q-37 0 -56 16t-27 50q-68 -74 -170 -74q-32 0 -60 10t-48.5 28t-32.5 42t-12 52zM116 125q0 -22 9 -36t22.5 -22.5t29.5 -11.5t31 -3q58 0 96.5 33t38.5 93v55q-50 -7 -92 -14.5t-72 -19t-46.5 -29t-16.5 -45.5zM95 581q-8 0 -11 6t-1 15 q8 37 33.5 62t67.5 25q20 0 39 -5.5t36 -12.5q17 -8 32.5 -13.5t26.5 -5.5q17 0 29.5 5.5t19.5 17.5q5 10 7.5 16t14.5 6h16q8 0 10 -7t0 -16q-9 -35 -33.5 -60.5t-65.5 -25.5q-15 0 -34.5 6t-39.5 14q-20 7 -38 12t-32 5q-11 0 -21 -6.5t-16 -15.5q-7 -10 -11.5 -16 t-16.5 -6h-12z"></glyph><glyph glyph-name="adieresis" unicode="ä" d="M28 120q0 49 21.5 80t62 49t99 26t132.5 12v42q0 51 -24.5 74t-87.5 23q-78 0 -94 -67q-3 -14 -11 -22t-23 -7l-21 1q-15 1 -21.5 12.5t-1.5 31.5q14 59 59.5 87t113.5 28q30 0 64 -5.5t62.5 -21.5t47.5 -45t19 -76v-226q0 -50 36 -50h7q11 0 14 -7t3 -15v-18 q0 -20 -16.5 -25t-34.5 -5q-37 0 -56 16t-27 50q-68 -74 -170 -74q-32 0 -60 10t-48.5 28t-32.5 42t-12 52zM116 125q0 -22 9 -36t22.5 -22.5t29.5 -11.5t31 -3q58 0 96.5 33t38.5 93v55q-50 -7 -92 -14.5t-72 -19t-46.5 -29t-16.5 -45.5zM317 586q-13 0 -22 9t-9 22v38 q0 13 9 22t22 9h26q13 0 22 -9t9 -22v-38q0 -13 -9 -22t-22 -9h-26zM157 586q-13 0 -22 9t-9 22v38q0 13 9 22t22 9h26q13 0 22 -9t9 -22v-38q0 -13 -9 -22t-22 -9h-26z"></glyph><glyph glyph-name="aring" unicode="å" d="M28 120q0 49 21.5 80t62 49t99 26t132.5 12v42q0 51 -24.5 74t-87.5 23q-78 0 -94 -67q-3 -14 -11 -22t-23 -7l-21 1q-15 1 -21.5 12.5t-1.5 31.5q14 59 59.5 87t113.5 28q30 0 64 -5.5t62.5 -21.5t47.5 -45t19 -76v-226q0 -50 36 -50h7q11 0 14 -7t3 -15v-18 q0 -20 -16.5 -25t-34.5 -5q-37 0 -56 16t-27 50q-68 -74 -170 -74q-32 0 -60 10t-48.5 28t-32.5 42t-12 52zM116 125q0 -22 9 -36t22.5 -22.5t29.5 -11.5t31 -3q58 0 96.5 33t38.5 93v55q-50 -7 -92 -14.5t-72 -19t-46.5 -29t-16.5 -45.5zM250 555q-21 0 -39.5 8t-32.5 22 t-22 32.5t-8 39.5t8 39.5t22 32.5t32.5 22t39.5 8t39.5 -8t32.5 -22t22 -32.5t8 -39.5t-8 -39.5t-22 -32.5t-32.5 -22t-39.5 -8zM250 595q25 0 43.5 19t18.5 43t-18.5 43t-43.5 19t-43.5 -19t-18.5 -43t18.5 -43t43.5 -19z"></glyph><glyph glyph-name="ae" unicode="æ" d="M569 52q38 0 66 16.5t45 54.5q6 13 13 21t21 6l27 -3q37 -5 18 -44q-25 -51 -78.5 -83t-120.5 -32q-44 0 -76 12.5t-53.5 29t-33 32t-15.5 21.5q-24 -27 -45.5 -45t-44.5 -29t-49.5 -16t-60.5 -5q-32 0 -60 10t-49 27.5t-33 40.5t-12 49q0 46 18 77.5t52 51t82 27.5 t108 8h66q0 30 -6 56.5t-19 47t-34.5 32t-52.5 11.5q-46 0 -68.5 -16.5t-30.5 -50.5q-3 -14 -11 -22t-23 -7l-21 1q-15 1 -21.5 12.5t-1.5 31.5q14 59 59 87t108 28q52 0 95 -18.5t69 -66.5q32 45 71.5 65t90.5 20q52 0 92 -18.5t67.5 -51t42.5 -75.5t19 -91q1 -12 -8 -25.5 t-29 -13.5h-306q0 -31 8 -60t24.5 -52t41.5 -37t59 -14zM693 279q-3 28 -13 54.5t-26.5 47t-40 33t-53.5 12.5q-29 0 -51.5 -12.5t-39 -32.5t-25 -47t-8.5 -55h257zM116 125q0 -22 9 -35.5t22.5 -21.5t29.5 -11t31 -3q36 0 63.5 14t46 36.5t27.5 51.5t9 59h-55 q-24 0 -55.5 -2t-60 -11t-48 -27t-19.5 -50z"></glyph><glyph glyph-name="ccedilla" unicode="ç" d="M34 234q0 55 15.5 102t45.5 81.5t74 53.5t102 19q69 0 123.5 -32t79.5 -91q6 -16 1 -27.5t-19 -13.5l-32 -3q-14 -2 -22 6t-13 21q-14 35 -45 55.5t-73 20.5q-44 0 -72.5 -17t-45.5 -44t-24 -60.5t-7 -66.5q0 -35 8 -68.5t25 -59.5t45 -42t69 -16q53 0 87.5 25.5 t45.5 72.5q3 13 9.5 21.5t20.5 7.5l24 -2q23 -2 29 -13.5t1 -29.5q-16 -62 -68.5 -101t-128.5 -44l-37 -51q15 4 32 4q34 0 58.5 -19t24.5 -55q0 -26 -12 -44t-29.5 -29t-37.5 -15.5t-35 -4.5q-24 0 -41.5 4t-39.5 11q-14 3 -14 16q0 3 2 7l5 11q4 8 12 8q3 0 5.5 -0.5 t6.5 -1.5q11 -4 22 -6t24 -2q23 0 39.5 9.5t16.5 30.5t-13.5 30.5t-34.5 9.5q-17 0 -23.5 -3t-11.5 -3t-11 6l-3 3q-4 4 -4 8t4 10l49 66q-51 4 -90 24t-65.5 52t-40 75t-13.5 94z"></glyph><glyph glyph-name="egrave" unicode="è" d="M34 235q0 58 14 105t42 80.5t71 51.5t101 18q62 0 104.5 -23.5t69 -58t38 -75t11.5 -74.5q0 -12 -5 -19.5t-11 -11.5t-11.5 -5.5t-6.5 -1.5h-329q0 -36 9.5 -66.5t27.5 -53.5t45 -36t62 -13q91 0 124 77q5 13 12.5 21t21.5 6l24 -3q35 -4 18 -44q-25 -60 -79.5 -90.5 t-123.5 -30.5q-55 0 -97.5 19t-72 52.5t-44.5 78.5t-15 97zM397 285q-4 29 -14.5 55t-27.5 45t-42.5 30t-59.5 11q-30 0 -53.5 -12t-40 -31.5t-26 -45t-11.5 -52.5h275zM277 572q-16 0 -23 3.5t-21 19.5l-77 84q-8 10 -8 17q0 8 5 12.5t10 4.5h46q14 0 21.5 -4.5t18.5 -22.5 l49 -78q6 -11 6 -18q0 -8 -5.5 -13t-13.5 -5h-8z"></glyph><glyph glyph-name="eacute" unicode="é" d="M34 235q0 58 14 105t42 80.5t71 51.5t101 18q62 0 104.5 -23.5t69 -58t38 -75t11.5 -74.5q0 -12 -5 -19.5t-11 -11.5t-11.5 -5.5t-6.5 -1.5h-329q0 -36 9.5 -66.5t27.5 -53.5t45 -36t62 -13q91 0 124 77q5 13 12.5 21t21.5 6l24 -3q35 -4 18 -44q-25 -60 -79.5 -90.5 t-123.5 -30.5q-55 0 -97.5 19t-72 52.5t-44.5 78.5t-15 97zM397 285q-4 29 -14.5 55t-27.5 45t-42.5 30t-59.5 11q-30 0 -53.5 -12t-40 -31.5t-26 -45t-11.5 -52.5h275zM235 572q-8 0 -13.5 5t-5.5 13q0 7 6 18l49 78q11 18 18.5 22.5t21.5 4.5h46q5 0 10 -4.5t5 -12.5 q0 -7 -8 -17l-77 -84q-14 -16 -21 -19.5t-23 -3.5h-8z"></glyph><glyph glyph-name="ecircumflex" unicode="ê" d="M34 235q0 58 14 105t42 80.5t71 51.5t101 18q62 0 104.5 -23.5t69 -58t38 -75t11.5 -74.5q0 -12 -5 -19.5t-11 -11.5t-11.5 -5.5t-6.5 -1.5h-329q0 -36 9.5 -66.5t27.5 -53.5t45 -36t62 -13q91 0 124 77q5 13 12.5 21t21.5 6l24 -3q35 -4 18 -44q-25 -60 -79.5 -90.5 t-123.5 -30.5q-55 0 -97.5 19t-72 52.5t-44.5 78.5t-15 97zM397 285q-4 29 -14.5 55t-27.5 45t-42.5 30t-59.5 11q-30 0 -53.5 -12t-40 -31.5t-26 -45t-11.5 -52.5h275zM145 572q-6 0 -10.5 3.5t-4.5 10.5q0 8 7 18l58 83q11 16 19.5 21t29.5 5h30q21 0 29.5 -4.5 t19.5 -20.5l59 -84q7 -11 7 -19q0 -13 -14 -13h-19q-21 0 -29 4t-20 22l-48 69l-48 -69q-6 -9 -10.5 -14.5t-8.5 -8t-9 -3t-13 -0.5h-25z"></glyph><glyph glyph-name="edieresis" unicode="ë" d="M34 235q0 58 14 105t42 80.5t71 51.5t101 18q62 0 104.5 -23.5t69 -58t38 -75t11.5 -74.5q0 -12 -5 -19.5t-11 -11.5t-11.5 -5.5t-6.5 -1.5h-329q0 -36 9.5 -66.5t27.5 -53.5t45 -36t62 -13q91 0 124 77q5 13 12.5 21t21.5 6l24 -3q35 -4 18 -44q-25 -60 -79.5 -90.5 t-123.5 -30.5q-55 0 -97.5 19t-72 52.5t-44.5 78.5t-15 97zM397 285q-4 29 -14.5 55t-27.5 45t-42.5 30t-59.5 11q-30 0 -53.5 -12t-40 -31.5t-26 -45t-11.5 -52.5h275zM327 586q-13 0 -22 9t-9 22v38q0 13 9 22t22 9h26q13 0 22 -9t9 -22v-38q0 -13 -9 -22t-22 -9h-26z M167 586q-13 0 -22 9t-9 22v38q0 13 9 22t22 9h26q13 0 22 -9t9 -22v-38q0 -13 -9 -22t-22 -9h-26z"></glyph><glyph glyph-name="igrave" unicode="ì" d="M61 447q0 13 9 22t22 9h20q13 0 22 -9t9 -22v-416q0 -13 -9 -22t-22 -9h-20q-13 0 -22 9t-9 22v416zM119 572q-16 0 -23 3.5t-21 19.5l-77 84q-8 10 -8 17q0 8 5 12.5t10 4.5h46q14 0 21.5 -4.5t18.5 -22.5l49 -78q6 -11 6 -18q0 -8 -5.5 -13t-13.5 -5h-8z"></glyph><glyph glyph-name="iacute" unicode="í" d="M61 447q0 13 9 22t22 9h20q13 0 22 -9t9 -22v-416q0 -13 -9 -22t-22 -9h-20q-13 0 -22 9t-9 22v416zM77 572q-8 0 -13.5 5t-5.5 13q0 7 6 18l49 78q11 18 18.5 22.5t21.5 4.5h46q5 0 10 -4.5t5 -12.5q0 -7 -8 -17l-77 -84q-14 -16 -21 -19.5t-23 -3.5h-8z"></glyph><glyph glyph-name="icircumflex" unicode="î" d="M61 447q0 13 9 22t22 9h20q13 0 22 -9t9 -22v-416q0 -13 -9 -22t-22 -9h-20q-13 0 -22 9t-9 22v416zM-13 572q-6 0 -10.5 3.5t-4.5 10.5q0 8 7 18l58 83q11 16 19.5 21t29.5 5h30q21 0 29.5 -4.5t19.5 -20.5l59 -84q7 -11 7 -19q0 -13 -14 -13h-19q-21 0 -29 4t-20 22 l-48 69l-48 -69q-6 -9 -10.5 -14.5t-8.5 -8t-9 -3t-13 -0.5h-25z"></glyph><glyph glyph-name="idieresis" unicode="ï" d="M61 447q0 13 9 22t22 9h20q13 0 22 -9t9 -22v-416q0 -13 -9 -22t-22 -9h-20q-13 0 -22 9t-9 22v416zM169 586q-13 0 -22 9t-9 22v38q0 13 9 22t22 9h26q13 0 22 -9t9 -22v-38q0 -13 -9 -22t-22 -9h-26zM9 586q-13 0 -22 9t-9 22v38q0 13 9 22t22 9h26q13 0 22 -9t9 -22 v-38q0 -13 -9 -22t-22 -9h-26z"></glyph><glyph glyph-name="eth" unicode="ð" d="M34 239q0 54 16 100t46 79.5t73.5 52.5t98.5 19q32 0 59.5 -13.5t45.5 -32.5v2q-20 47 -53 87.5t-71 67.5l-85 -48q-9 -5 -19 -4.5t-17 7.5l-2 2q-6 6 -5 15.5t9 13.5l77 43q-10 10 -21 17t-25 15q-11 5 -14 17.5t11 23.5l16 13q11 8 22.5 7t23.5 -8q15 -9 31 -19.5 t32 -22.5l81 46q9 5 17.5 5t15.5 -7l4 -4q6 -6 5.5 -15t-8.5 -13l-75 -43q94 -79 136.5 -176t42.5 -196q0 -59 -14 -110.5t-42.5 -89.5t-72.5 -60t-105 -22q-55 0 -98.5 19t-73.5 52.5t-46 79.5t-16 100zM122 239q0 -30 6 -62.5t22.5 -60.5t45 -46t72.5 -18t72.5 18t45 46 t22.5 60.5t6 62.5t-6 62.5t-22.5 60.5t-45 46t-72.5 18t-72.5 -18t-45 -46t-22.5 -60.5t-6 -62.5z"></glyph><glyph glyph-name="ntilde" unicode="ñ" d="M63 447q0 13 9 22t22 9h20q13 0 22 -9t9 -22v-33h2q24 36 58 56t82 20q36 0 67 -8.5t53.5 -29t35.5 -54t13 -83.5v-284q0 -13 -9 -22t-22 -9h-20q-13 0 -22 9t-9 22v276q0 31 -7.5 51.5t-21 33t-32 17.5t-40.5 5q-57 0 -92.5 -34t-35.5 -92v-257q0 -13 -9 -22t-22 -9h-20 q-13 0 -22 9t-9 22v416zM105 581q-8 0 -11 6t-1 15q8 37 33.5 62t67.5 25q20 0 39 -5.5t36 -12.5q17 -8 32.5 -13.5t26.5 -5.5q17 0 29.5 5.5t19.5 17.5q5 10 7.5 16t14.5 6h16q8 0 10 -7t0 -16q-9 -35 -33.5 -60.5t-65.5 -25.5q-15 0 -34.5 6t-39.5 14q-20 7 -38 12t-32 5 q-11 0 -21 -6.5t-16 -15.5q-7 -10 -11.5 -16t-16.5 -6h-12z"></glyph><glyph glyph-name="ograve" unicode="ò" d="M34 239q0 54 16 100t46 79.5t73.5 52.5t98.5 19t98.5 -19t73.5 -52.5t46 -79.5t16 -100t-16 -100t-46 -79.5t-73.5 -52.5t-98.5 -19t-98.5 19t-73.5 52.5t-46 79.5t-16 100zM122 239q0 -30 6 -62.5t22.5 -60.5t45 -46t72.5 -18t72.5 18t45 46t22.5 60.5t6 62.5t-6 62.5 t-22.5 60.5t-45 46t-72.5 18t-72.5 -18t-45 -46t-22.5 -60.5t-6 -62.5zM285 572q-16 0 -23 3.5t-21 19.5l-77 84q-8 10 -8 17q0 8 5 12.5t10 4.5h46q14 0 21.5 -4.5t18.5 -22.5l49 -78q6 -11 6 -18q0 -8 -5.5 -13t-13.5 -5h-8z"></glyph><glyph glyph-name="oacute" unicode="ó" d="M34 239q0 54 16 100t46 79.5t73.5 52.5t98.5 19t98.5 -19t73.5 -52.5t46 -79.5t16 -100t-16 -100t-46 -79.5t-73.5 -52.5t-98.5 -19t-98.5 19t-73.5 52.5t-46 79.5t-16 100zM122 239q0 -30 6 -62.5t22.5 -60.5t45 -46t72.5 -18t72.5 18t45 46t22.5 60.5t6 62.5t-6 62.5 t-22.5 60.5t-45 46t-72.5 18t-72.5 -18t-45 -46t-22.5 -60.5t-6 -62.5zM243 572q-8 0 -13.5 5t-5.5 13q0 7 6 18l49 78q11 18 18.5 22.5t21.5 4.5h46q5 0 10 -4.5t5 -12.5q0 -7 -8 -17l-77 -84q-14 -16 -21 -19.5t-23 -3.5h-8z"></glyph><glyph glyph-name="ocircumflex" unicode="ô" d="M34 239q0 54 16 100t46 79.5t73.5 52.5t98.5 19t98.5 -19t73.5 -52.5t46 -79.5t16 -100t-16 -100t-46 -79.5t-73.5 -52.5t-98.5 -19t-98.5 19t-73.5 52.5t-46 79.5t-16 100zM122 239q0 -30 6 -62.5t22.5 -60.5t45 -46t72.5 -18t72.5 18t45 46t22.5 60.5t6 62.5t-6 62.5 t-22.5 60.5t-45 46t-72.5 18t-72.5 -18t-45 -46t-22.5 -60.5t-6 -62.5zM153 572q-6 0 -10.5 3.5t-4.5 10.5q0 8 7 18l58 83q11 16 19.5 21t29.5 5h30q21 0 29.5 -4.5t19.5 -20.5l59 -84q7 -11 7 -19q0 -13 -14 -13h-19q-21 0 -29 4t-20 22l-48 69l-48 -69q-6 -9 -10.5 -14.5 t-8.5 -8t-9 -3t-13 -0.5h-25z"></glyph><glyph glyph-name="otilde" unicode="õ" d="M34 239q0 54 16 100t46 79.5t73.5 52.5t98.5 19t98.5 -19t73.5 -52.5t46 -79.5t16 -100t-16 -100t-46 -79.5t-73.5 -52.5t-98.5 -19t-98.5 19t-73.5 52.5t-46 79.5t-16 100zM122 239q0 -30 6 -62.5t22.5 -60.5t45 -46t72.5 -18t72.5 18t45 46t22.5 60.5t6 62.5t-6 62.5 t-22.5 60.5t-45 46t-72.5 18t-72.5 -18t-45 -46t-22.5 -60.5t-6 -62.5zM113 581q-8 0 -11 6t-1 15q8 37 33.5 62t67.5 25q20 0 39 -5.5t36 -12.5q17 -8 32.5 -13.5t26.5 -5.5q17 0 29.5 5.5t19.5 17.5q5 10 7.5 16t14.5 6h16q8 0 10 -7t0 -16q-9 -35 -33.5 -60.5 t-65.5 -25.5q-15 0 -34.5 6t-39.5 14q-20 7 -38 12t-32 5q-11 0 -21 -6.5t-16 -15.5q-7 -10 -11.5 -16t-16.5 -6h-12z"></glyph><glyph glyph-name="odieresis" unicode="ö" d="M34 239q0 54 16 100t46 79.5t73.5 52.5t98.5 19t98.5 -19t73.5 -52.5t46 -79.5t16 -100t-16 -100t-46 -79.5t-73.5 -52.5t-98.5 -19t-98.5 19t-73.5 52.5t-46 79.5t-16 100zM122 239q0 -30 6 -62.5t22.5 -60.5t45 -46t72.5 -18t72.5 18t45 46t22.5 60.5t6 62.5t-6 62.5 t-22.5 60.5t-45 46t-72.5 18t-72.5 -18t-45 -46t-22.5 -60.5t-6 -62.5zM335 586q-13 0 -22 9t-9 22v38q0 13 9 22t22 9h26q13 0 22 -9t9 -22v-38q0 -13 -9 -22t-22 -9h-26zM175 586q-13 0 -22 9t-9 22v38q0 13 9 22t22 9h26q13 0 22 -9t9 -22v-38q0 -13 -9 -22t-22 -9h-26z "></glyph><glyph glyph-name="divide" unicode="÷" d="M301 398q-25 0 -43 18t-18 42q0 25 18 42.5t42 17.5t42 -18t18 -42q0 -11 -5 -22t-13 -19.5t-18.5 -13.5t-22.5 -5zM78 218q-13 0 -22 9t-9 22v8q0 13 9 22t22 9h444q13 0 22 -9t9 -22v-8q0 -13 -9 -22t-22 -9h-444zM240 48q0 25 18 42.5t42 17.5t42 -18t18 -42 q0 -11 -5 -22t-13 -19.5t-18.5 -13.5t-22.5 -5q-25 0 -43 18t-18 42z"></glyph><glyph glyph-name="oslash" unicode="ø" d="M48 32q-7 8 -7 18t8 17l24 24q-39 61 -39 148q0 54 16 100t46 79.5t73.5 52.5t98.5 19q49 0 88.5 -15t68.5 -41l27 26q7 7 17 7t18 -7l1 -1q8 -7 8 -17t-7 -17l-31 -30q44 -65 44 -156q0 -54 -16 -100t-46 -79.5t-73.5 -52.5t-98.5 -19q-51 0 -91.5 16.5t-71.5 45.5 l-21 -21q-8 -7 -18 -7t-17 8zM371 382q-17 20 -42 32t-61 12q-44 0 -72.5 -18t-45 -46t-22.5 -60.5t-6 -62.5q0 -21 2.5 -43.5t10.5 -43.5zM160 103q16 -23 42.5 -37t65.5 -14q44 0 72.5 18t45 46t22.5 60.5t6 62.5q0 23 -3.5 48t-12.5 49z"></glyph><glyph glyph-name="ugrave" unicode="ù" d="M63 447q0 13 9 22t22 9h20q13 0 22 -9t9 -22v-284q0 -51 28 -75t73 -24q57 0 92.5 34t35.5 92v257q0 13 9 22t22 9h20q13 0 22 -9t9 -22v-416q0 -13 -9 -22t-22 -9h-20q-13 0 -22 9t-9 22v33h-2q-24 -36 -58 -56t-82 -20q-36 0 -67 8.5t-53.5 29t-35.5 54t-13 83.5v284z M277 572q-16 0 -23 3.5t-21 19.5l-77 84q-8 10 -8 17q0 8 5 12.5t10 4.5h46q14 0 21.5 -4.5t18.5 -22.5l49 -78q6 -11 6 -18q0 -8 -5.5 -13t-13.5 -5h-8z"></glyph><glyph glyph-name="uacute" unicode="ú" d="M63 447q0 13 9 22t22 9h20q13 0 22 -9t9 -22v-284q0 -51 28 -75t73 -24q57 0 92.5 34t35.5 92v257q0 13 9 22t22 9h20q13 0 22 -9t9 -22v-416q0 -13 -9 -22t-22 -9h-20q-13 0 -22 9t-9 22v33h-2q-24 -36 -58 -56t-82 -20q-36 0 -67 8.5t-53.5 29t-35.5 54t-13 83.5v284z M235 572q-8 0 -13.5 5t-5.5 13q0 7 6 18l49 78q11 18 18.5 22.5t21.5 4.5h46q5 0 10 -4.5t5 -12.5q0 -7 -8 -17l-77 -84q-14 -16 -21 -19.5t-23 -3.5h-8z"></glyph><glyph glyph-name="ucircumflex" unicode="û" d="M63 447q0 13 9 22t22 9h20q13 0 22 -9t9 -22v-284q0 -51 28 -75t73 -24q57 0 92.5 34t35.5 92v257q0 13 9 22t22 9h20q13 0 22 -9t9 -22v-416q0 -13 -9 -22t-22 -9h-20q-13 0 -22 9t-9 22v33h-2q-24 -36 -58 -56t-82 -20q-36 0 -67 8.5t-53.5 29t-35.5 54t-13 83.5v284z M145 572q-6 0 -10.5 3.5t-4.5 10.5q0 8 7 18l58 83q11 16 19.5 21t29.5 5h30q21 0 29.5 -4.5t19.5 -20.5l59 -84q7 -11 7 -19q0 -13 -14 -13h-19q-21 0 -29 4t-20 22l-48 69l-48 -69q-6 -9 -10.5 -14.5t-8.5 -8t-9 -3t-13 -0.5h-25z"></glyph><glyph glyph-name="udieresis" unicode="ü" d="M63 447q0 13 9 22t22 9h20q13 0 22 -9t9 -22v-284q0 -51 28 -75t73 -24q57 0 92.5 34t35.5 92v257q0 13 9 22t22 9h20q13 0 22 -9t9 -22v-416q0 -13 -9 -22t-22 -9h-20q-13 0 -22 9t-9 22v33h-2q-24 -36 -58 -56t-82 -20q-36 0 -67 8.5t-53.5 29t-35.5 54t-13 83.5v284z M327 586q-13 0 -22 9t-9 22v38q0 13 9 22t22 9h26q13 0 22 -9t9 -22v-38q0 -13 -9 -22t-22 -9h-26zM167 586q-13 0 -22 9t-9 22v38q0 13 9 22t22 9h26q13 0 22 -9t9 -22v-38q0 -13 -9 -22t-22 -9h-26z"></glyph><glyph glyph-name="yacute" unicode="ý" d="M33 -157q8 0 14.5 -1.5t18.5 -1.5q26 0 44.5 13t32.5 54l33 92l-149 442q-7 21 0 29t24 8h25q20 0 25.5 -8t10.5 -22l108 -331h2l115 331q5 14 10.5 22t24.5 8h22q37 0 24 -36l-194 -547q-9 -26 -20 -50t-27 -42t-39 -28.5t-56 -10.5q-14 0 -34 4t-29 12q-6 6 -6 17v23 q0 23 20 23zM197 572q-8 0 -13.5 5t-5.5 13q0 7 6 18l49 78q11 18 18.5 22.5t21.5 4.5h46q5 0 10 -4.5t5 -12.5q0 -7 -8 -17l-77 -84q-14 -16 -21 -19.5t-23 -3.5h-8z"></glyph><glyph glyph-name="thorn" unicode="þ" d="M145 -193q0 -13 -9 -22t-22 -9h-20q-13 0 -22 9t-9 22v874q0 13 9 22t22 9h20q13 0 22 -9t9 -22v-260h1q25 34 64.5 51.5t82.5 17.5q69 0 114 -21t72 -56.5t38 -80.5t11 -93t-11.5 -93t-38.5 -80.5t-70.5 -56.5t-107.5 -21q-48 0 -87.5 18t-66.5 54zM142 239 q0 -36 10 -68.5t29 -57.5t46.5 -40t63.5 -15q40 0 68 15t46 40t26.5 57.5t8.5 68.5t-8.5 68.5t-26.5 57.5t-46 40t-68 15t-68 -15t-46 -40t-26.5 -57.5t-8.5 -68.5z"></glyph><glyph glyph-name="ydieresis" unicode="ÿ" d="M33 -157q8 0 14.5 -1.5t18.5 -1.5q26 0 44.5 13t32.5 54l33 92l-149 442q-7 21 0 29t24 8h25q20 0 25.5 -8t10.5 -22l108 -331h2l115 331q5 14 10.5 22t24.5 8h22q37 0 24 -36l-194 -547q-9 -26 -20 -50t-27 -42t-39 -28.5t-56 -10.5q-14 0 -34 4t-29 12q-6 6 -6 17v23 q0 23 20 23zM289 586q-13 0 -22 9t-9 22v38q0 13 9 22t22 9h26q13 0 22 -9t9 -22v-38q0 -13 -9 -22t-22 -9h-26zM129 586q-13 0 -22 9t-9 22v38q0 13 9 22t22 9h26q13 0 22 -9t9 -22v-38q0 -13 -9 -22t-22 -9h-26z"></glyph><glyph glyph-name="Amacron" unicode="Ā" d="M270 683q5 13 16.5 21t25.5 8h38q14 0 25.5 -8t16.5 -21l234 -649q6 -16 -0.5 -25t-22.5 -9h-40q-14 0 -22 8t-13 22l-66 188h-270l-71 -189q-5 -13 -13.5 -21t-22.5 -8h-40q-16 0 -22.5 9t-0.5 25zM433 300l-103 295l-109 -295h212zM222 801q-11 0 -19.5 8.5t-8.5 19.5 v2q0 11 8.5 19.5t19.5 8.5h218q11 0 19.5 -8.5t8.5 -19.5v-2q0 -11 -8.5 -19.5t-19.5 -8.5h-218z"></glyph><glyph glyph-name="amacron" unicode="ā" d="M136 622q-11 0 -19.5 6t-8.5 17v10q0 11 8.5 18t19.5 7h218q11 0 19.5 -6t8.5 -17v-10q0 -11 -8.5 -18t-19.5 -7h-218zM28 120q0 49 21.5 80t62 49t99 26t132.5 12v42q0 51 -24.5 74t-87.5 23q-78 0 -94 -67q-3 -14 -11 -22t-23 -7l-21 1q-15 1 -21.5 12.5t-1.5 31.5 q14 59 59.5 87t113.5 28q30 0 64 -5.5t62.5 -21.5t47.5 -45t19 -76v-226q0 -50 36 -50h7q11 0 14 -7t3 -15v-18q0 -20 -16.5 -25t-34.5 -5q-37 0 -56 16t-27 50q-68 -74 -170 -74q-32 0 -60 10t-48.5 28t-32.5 42t-12 52zM116 125q0 -22 9 -36t22.5 -22.5t29.5 -11.5t31 -3 q58 0 96.5 33t38.5 93v55q-50 -7 -92 -14.5t-72 -19t-46.5 -29t-16.5 -45.5z"></glyph><glyph glyph-name="Abreve" unicode="Ă" d="M270 683q5 13 16.5 21t25.5 8h38q14 0 25.5 -8t16.5 -21l234 -649q6 -16 -0.5 -25t-22.5 -9h-40q-14 0 -22 8t-13 22l-66 188h-270l-71 -189q-5 -13 -13.5 -21t-22.5 -8h-40q-16 0 -22.5 9t-0.5 25zM433 300l-103 295l-109 -295h212zM336 767q-63 0 -101.5 25.5 t-52.5 84.5q-2 10 1 17.5t13 7.5h18q10 0 14 -6.5t9 -17.5q11 -29 37.5 -41t58.5 -12q36 0 59 12t36 41q5 15 9 19.5t15 4.5h16q9 0 13 -7.5t1 -17.5q-13 -53 -50 -81.5t-96 -28.5z"></glyph><glyph glyph-name="abreve" unicode="ă" d="M248 578q-63 0 -101.5 25.5t-52.5 84.5q-2 10 1 17.5t13 7.5h18q10 0 14 -6.5t9 -17.5q11 -29 37.5 -41t58.5 -12q36 0 59 12t36 41q5 15 9 19.5t15 4.5h16q9 0 13 -7.5t1 -17.5q-13 -53 -50 -81.5t-96 -28.5zM28 120q0 49 21.5 80t62 49t99 26t132.5 12v42 q0 51 -24.5 74t-87.5 23q-78 0 -94 -67q-3 -14 -11 -22t-23 -7l-21 1q-15 1 -21.5 12.5t-1.5 31.5q14 59 59.5 87t113.5 28q30 0 64 -5.5t62.5 -21.5t47.5 -45t19 -76v-226q0 -50 36 -50h7q11 0 14 -7t3 -15v-18q0 -20 -16.5 -25t-34.5 -5q-37 0 -56 16t-27 50 q-68 -74 -170 -74q-32 0 -60 10t-48.5 28t-32.5 42t-12 52zM116 125q0 -22 9 -36t22.5 -22.5t29.5 -11.5t31 -3q58 0 96.5 33t38.5 93v55q-50 -7 -92 -14.5t-72 -19t-46.5 -29t-16.5 -45.5z"></glyph><glyph glyph-name="Aogonek" unicode="Ą" d="M462 218h-270l-71 -189q-5 -13 -13.5 -21t-22.5 -8h-40q-16 0 -22.5 9t-0.5 25l248 649q5 13 16.5 21t25.5 8h38q14 0 25.5 -8t16.5 -21l234 -649q6 -16 -0.5 -25t-22.5 -9q-13 -13 -30 -30.5t-37 -46.5q-10 -14 -16 -27t-6 -27q0 -23 11.5 -35t28.5 -12q7 0 12 1t10 1 q7 0 12.5 -3.5t5.5 -10.5v-10q0 -10 -6 -14.5t-15 -6.5q-15 -3 -30 -3q-42 0 -73.5 25.5t-31.5 71.5q0 32 27.5 64.5t72.5 62.5zM433 300l-103 295l-109 -295h212z"></glyph><glyph glyph-name="aogonek" unicode="ą" d="M279 -127q0 22 10.5 41.5t26.5 36.5t34.5 31t35.5 25q-26 14 -35 55q-68 -74 -170 -74q-32 0 -60 10t-48.5 28t-32.5 42t-12 52q0 49 21.5 80t62 49t99 26t132.5 12v42q0 51 -24.5 74t-87.5 23q-78 0 -94 -67q-3 -14 -11 -22t-23 -7l-21 1q-15 1 -21.5 12.5t-1.5 31.5 q14 59 59.5 87t113.5 28q30 0 64 -5.5t62.5 -21.5t47.5 -45t19 -76v-226q0 -50 36 -50h7q11 0 14 -7t3 -15v-18q0 -18 -15 -23.5t-32 -6.5l-26.5 -26.5t-27 -31t-21 -34t-8.5 -35.5q0 -23 11.5 -35t28.5 -12q7 0 12 1t10 1q7 0 12.5 -3.5t5.5 -10.5v-10q0 -10 -6 -14.5 t-15 -6.5q-15 -3 -30 -3q-42 0 -73.5 25.5t-31.5 71.5zM116 125q0 -22 9 -36t22.5 -22.5t29.5 -11.5t31 -3q58 0 96.5 33t38.5 93v55q-50 -7 -92 -14.5t-72 -19t-46.5 -29t-16.5 -45.5z"></glyph><glyph glyph-name="Cacute" unicode="Ć" d="M49 356q0 83 24.5 152t71 118.5t113 76.5t149.5 27q107 0 190.5 -46.5t121.5 -141.5q5 -14 -0.5 -24.5t-21.5 -13.5l-32 -6q-17 -3 -27.5 4t-15.5 20q-26 60 -84.5 96t-130.5 36q-66 0 -114.5 -24.5t-80 -65.5t-46.5 -95t-15 -113t15 -113t46.5 -95t80 -65.5t114.5 -24.5 q85 0 145 48t82 132q3 13 11.5 21t27.5 6l31 -4q19 -2 25 -13t1 -27q-13 -47 -42.5 -90t-71.5 -76t-95 -53t-114 -20q-83 0 -149.5 27t-113 76.5t-71 118.5t-24.5 152zM381 761q-8 0 -13.5 5t-5.5 13q0 7 6 18l49 78q11 18 18.5 22.5t21.5 4.5h46q5 0 10 -4.5t5 -12.5 q0 -7 -8 -17l-77 -84q-14 -16 -21 -19.5t-23 -3.5h-8z"></glyph><glyph glyph-name="cacute" unicode="ć" d="M34 234q0 55 15.5 102t45.5 81.5t74 53.5t102 19q69 0 123.5 -32t79.5 -91q6 -16 1 -27.5t-19 -13.5l-32 -3q-14 -2 -22 6t-13 21q-14 35 -45 55.5t-73 20.5q-44 0 -72.5 -17t-45.5 -44t-24 -60.5t-7 -66.5q0 -35 8 -68.5t25 -59.5t45 -42t69 -16q53 0 87.5 25.5 t45.5 72.5q3 13 9.5 21.5t20.5 7.5l24 -2q23 -2 29 -13.5t1 -29.5q-8 -32 -27.5 -59t-47 -46.5t-63 -30t-76.5 -10.5q-58 0 -102.5 18t-74.5 50.5t-45.5 77.5t-15.5 100zM249 572q-8 0 -13.5 5t-5.5 13q0 7 6 18l49 78q11 18 18.5 22.5t21.5 4.5h46q5 0 10 -4.5t5 -12.5 q0 -7 -8 -17l-77 -84q-14 -16 -21 -19.5t-23 -3.5h-8z"></glyph><glyph glyph-name="Ccircumflex" unicode="Ĉ" d="M49 356q0 83 24.5 152t71 118.5t113 76.5t149.5 27q107 0 190.5 -46.5t121.5 -141.5q5 -14 -0.5 -24.5t-21.5 -13.5l-32 -6q-17 -3 -27.5 4t-15.5 20q-26 60 -84.5 96t-130.5 36q-66 0 -114.5 -24.5t-80 -65.5t-46.5 -95t-15 -113t15 -113t46.5 -95t80 -65.5t114.5 -24.5 q85 0 145 48t82 132q3 13 11.5 21t27.5 6l31 -4q19 -2 25 -13t1 -27q-13 -47 -42.5 -90t-71.5 -76t-95 -53t-114 -20q-83 0 -149.5 27t-113 76.5t-71 118.5t-24.5 152zM291 761q-6 0 -10.5 3.5t-4.5 10.5q0 8 7 18l58 83q11 16 19.5 21t29.5 5h30q21 0 29.5 -4.5t19.5 -20.5 l59 -84q7 -11 7 -19q0 -13 -14 -13h-19q-21 0 -29 4t-20 22l-48 69l-48 -69q-6 -9 -10.5 -14.5t-8.5 -8t-9 -3t-13 -0.5h-25z"></glyph><glyph glyph-name="ccircumflex" unicode="ĉ" d="M34 234q0 55 15.5 102t45.5 81.5t74 53.5t102 19q69 0 123.5 -32t79.5 -91q6 -16 1 -27.5t-19 -13.5l-32 -3q-14 -2 -22 6t-13 21q-14 35 -45 55.5t-73 20.5q-44 0 -72.5 -17t-45.5 -44t-24 -60.5t-7 -66.5q0 -35 8 -68.5t25 -59.5t45 -42t69 -16q53 0 87.5 25.5 t45.5 72.5q3 13 9.5 21.5t20.5 7.5l24 -2q23 -2 29 -13.5t1 -29.5q-8 -32 -27.5 -59t-47 -46.5t-63 -30t-76.5 -10.5q-58 0 -102.5 18t-74.5 50.5t-45.5 77.5t-15.5 100zM153 572q-6 0 -10.5 3.5t-4.5 10.5q0 8 7 18l58 83q11 16 19.5 21t29.5 5h30q21 0 29.5 -4.5 t19.5 -20.5l59 -84q7 -11 7 -19q0 -13 -14 -13h-19q-21 0 -29 4t-20 22l-48 69l-48 -69q-6 -9 -10.5 -14.5t-8.5 -8t-9 -3t-13 -0.5h-25z"></glyph><glyph glyph-name="Cdotaccent" unicode="Ċ" d="M49 356q0 83 24.5 152t71 118.5t113 76.5t149.5 27q107 0 190.5 -46.5t121.5 -141.5q5 -14 -0.5 -24.5t-21.5 -13.5l-32 -6q-17 -3 -27.5 4t-15.5 20q-26 60 -84.5 96t-130.5 36q-66 0 -114.5 -24.5t-80 -65.5t-46.5 -95t-15 -113t15 -113t46.5 -95t80 -65.5t114.5 -24.5 q85 0 145 48t82 132q3 13 11.5 21t27.5 6l31 -4q19 -2 25 -13t1 -27q-13 -47 -42.5 -90t-71.5 -76t-95 -53t-114 -20q-83 0 -149.5 27t-113 76.5t-71 118.5t-24.5 152zM390 775q-13 0 -22 9t-9 22v38q0 13 9 22t22 9h26q13 0 22 -9t9 -22v-38q0 -13 -9 -22t-22 -9h-26z"></glyph><glyph glyph-name="cdotaccent" unicode="ċ" d="M34 234q0 55 15.5 102t45.5 81.5t74 53.5t102 19q69 0 123.5 -32t79.5 -91q6 -16 1 -27.5t-19 -13.5l-32 -3q-14 -2 -22 6t-13 21q-14 35 -45 55.5t-73 20.5q-44 0 -72.5 -17t-45.5 -44t-24 -60.5t-7 -66.5q0 -35 8 -68.5t25 -59.5t45 -42t69 -16q53 0 87.5 25.5 t45.5 72.5q3 13 9.5 21.5t20.5 7.5l24 -2q23 -2 29 -13.5t1 -29.5q-8 -32 -27.5 -59t-47 -46.5t-63 -30t-76.5 -10.5q-58 0 -102.5 18t-74.5 50.5t-45.5 77.5t-15.5 100zM253 596q-13 0 -22 9t-9 22v38q0 13 9 22t22 9h26q13 0 22 -9t9 -22v-38q0 -13 -9 -22t-22 -9h-26z "></glyph><glyph glyph-name="Ccaron" unicode="Č" d="M49 356q0 83 24.5 152t71 118.5t113 76.5t149.5 27q107 0 190.5 -46.5t121.5 -141.5q5 -14 -0.5 -24.5t-21.5 -13.5l-32 -6q-17 -3 -27.5 4t-15.5 20q-26 60 -84.5 96t-130.5 36q-66 0 -114.5 -24.5t-80 -65.5t-46.5 -95t-15 -113t15 -113t46.5 -95t80 -65.5t114.5 -24.5 q85 0 145 48t82 132q3 13 11.5 21t27.5 6l31 -4q19 -2 25 -13t1 -27q-13 -47 -42.5 -90t-71.5 -76t-95 -53t-114 -20q-83 0 -149.5 27t-113 76.5t-71 118.5t-24.5 152zM390 761q-21 0 -29.5 5t-19.5 21l-58 83q-7 10 -7 18q0 7 4.5 10.5t10.5 3.5h25q8 0 13 -0.5t9 -3 t8.5 -8t10.5 -14.5l48 -69l48 69q12 18 20 22t29 4h19q14 0 14 -13q0 -8 -7 -19l-59 -84q-11 -16 -19.5 -20.5t-29.5 -4.5h-30z"></glyph><glyph glyph-name="ccaron" unicode="č" d="M34 234q0 55 15.5 102t45.5 81.5t74 53.5t102 19q69 0 123.5 -32t79.5 -91q6 -16 1 -27.5t-19 -13.5l-32 -3q-14 -2 -22 6t-13 21q-14 35 -45 55.5t-73 20.5q-44 0 -72.5 -17t-45.5 -44t-24 -60.5t-7 -66.5q0 -35 8 -68.5t25 -59.5t45 -42t69 -16q53 0 87.5 25.5 t45.5 72.5q3 13 9.5 21.5t20.5 7.5l24 -2q23 -2 29 -13.5t1 -29.5q-8 -32 -27.5 -59t-47 -46.5t-63 -30t-76.5 -10.5q-58 0 -102.5 18t-74.5 50.5t-45.5 77.5t-15.5 100zM252 572q-21 0 -29.5 5t-19.5 21l-58 83q-7 10 -7 18q0 7 4.5 10.5t10.5 3.5h25q8 0 13 -0.5t9 -3 t8.5 -8t10.5 -14.5l48 -69l48 69q12 18 20 22t29 4h19q14 0 14 -13q0 -8 -7 -19l-59 -84q-11 -16 -19.5 -20.5t-29.5 -4.5h-30z"></glyph><glyph glyph-name="Dcaron" unicode="Ď" d="M71 681q0 13 9 22t22 9h238q81 0 140.5 -26t98.5 -73.5t57.5 -114t18.5 -146.5q0 -76 -19.5 -140.5t-58.5 -111.5t-98.5 -73.5t-138.5 -26.5h-238q-13 0 -22 9t-9 22v650zM324 82q63 0 107 20.5t71 57t39 88t12 113.5q0 61 -12.5 110.5t-39 84.5t-68.5 54.5t-101 19.5 h-167v-548h159zM303 761q-21 0 -29.5 5t-19.5 21l-58 83q-7 10 -7 18q0 7 4.5 10.5t10.5 3.5h25q8 0 13 -0.5t9 -3t8.5 -8t10.5 -14.5l48 -69l48 69q12 18 20 22t29 4h19q14 0 14 -13q0 -8 -7 -19l-59 -84q-11 -16 -19.5 -20.5t-29.5 -4.5h-30z"></glyph><glyph glyph-name="dcaron" unicode="ď" d="M34 239q0 48 12.5 93t40 80.5t70.5 56.5t105 21q48 0 87 -18t66 -54h2v263q0 13 9 22t22 9h20q13 0 22 -9t9 -22v-650q0 -13 -9 -22t-22 -9h-20q-13 0 -22 9t-9 22v26h-2q-25 -34 -63 -51.5t-83 -17.5q-66 0 -111 21t-72.5 56.5t-39.5 80.5t-12 93zM122 239 q0 -36 8.5 -68.5t26.5 -57.5t46 -40t68 -15t68 15t46 40t26.5 57.5t8.5 68.5t-10 68.5t-29 57.5t-46.5 40t-63.5 15q-40 0 -68 -15t-46 -40t-26.5 -57.5t-8.5 -68.5zM561 537q-11 0 -17.5 6.5t-4.5 21.5l18 116q3 18 13 24.5t23 6.5h20q11 0 19 -6t3 -24l-33 -118 q-5 -16 -14 -21.5t-21 -5.5h-6z"></glyph><glyph glyph-name="Dcroat" unicode="Đ" d="M71 340h-37q-13 0 -22 9t-9 22v8q0 13 9 22t22 9h37v271q0 13 9 22t22 9h238q81 0 140.5 -26t98.5 -73.5t57.5 -114t18.5 -146.5q0 -76 -19.5 -140.5t-58.5 -111.5t-98.5 -73.5t-138.5 -26.5h-238q-13 0 -22 9t-9 22v309zM324 82q63 0 107 20.5t71 57t39 88t12 113.5 q0 61 -12.5 110.5t-39 84.5t-68.5 54.5t-101 19.5h-167v-220h173q13 0 22 -9t9 -22v-8q0 -13 -9 -22t-22 -9h-173v-258h159z"></glyph><glyph glyph-name="dcroat" unicode="đ" d="M34 239q0 48 12.5 93t40 80.5t70.5 56.5t105 21q48 0 87.5 -18t66.5 -54l1 144h-118q-13 0 -21.5 8.5t-8.5 21.5v2q0 12 8.5 20.5t21.5 8.5h118v58q0 13 9 22t22 9h20q13 0 22 -9t9 -22v-58h22q12 0 20.5 -8.5t8.5 -20.5v-2q0 -13 -8.5 -21.5t-20.5 -8.5h-22v-531 q0 -13 -9 -22t-22 -9h-20q-13 0 -22 9t-10 22v26q-25 -34 -63.5 -51.5t-83.5 -17.5q-66 0 -111 21t-72.5 56.5t-39.5 80.5t-12 93zM122 239q0 -36 8.5 -68.5t26.5 -57.5t46 -40t68 -15t68 15t46 40t26.5 57.5t8.5 68.5t-10 68.5t-29 57.5t-46.5 40t-63.5 15q-40 0 -68 -15 t-46 -40t-26.5 -57.5t-8.5 -68.5z"></glyph><glyph glyph-name="Emacron" unicode="Ē" d="M71 681q0 13 9 22t22 9h438q13 0 22 -9t9 -22v-20q0 -13 -9 -22t-22 -9h-375v-220h322q13 0 22 -9t9 -22v-20q0 -13 -9 -22t-22 -9h-322v-246h385q13 0 22 -9t9 -22v-20q0 -13 -9 -22t-22 -9h-448q-13 0 -22 9t-9 22v650zM200 801q-11 0 -19.5 8.5t-8.5 19.5v2 q0 11 8.5 19.5t19.5 8.5h218q11 0 19.5 -8.5t8.5 -19.5v-2q0 -11 -8.5 -19.5t-19.5 -8.5h-218z"></glyph><glyph glyph-name="emacron" unicode="ē" d="M34 235q0 58 14 105t42 80.5t71 51.5t101 18q62 0 104.5 -23.5t69 -58t38 -75t11.5 -74.5q0 -12 -5 -19.5t-11 -11.5t-11.5 -5.5t-6.5 -1.5h-329q0 -36 9.5 -66.5t27.5 -53.5t45 -36t62 -13q91 0 124 77q5 13 12.5 21t21.5 6l24 -3q35 -4 18 -44q-25 -60 -79.5 -90.5 t-123.5 -30.5q-55 0 -97.5 19t-72 52.5t-44.5 78.5t-15 97zM397 285q-4 29 -14.5 55t-27.5 45t-42.5 30t-59.5 11q-30 0 -53.5 -12t-40 -31.5t-26 -45t-11.5 -52.5h275zM152 622q-11 0 -19.5 6t-8.5 17v10q0 11 8.5 18t19.5 7h218q11 0 19.5 -6t8.5 -17v-10q0 -11 -8.5 -18 t-19.5 -7h-218z"></glyph><glyph glyph-name="Ebreve" unicode="Ĕ" d="M71 681q0 13 9 22t22 9h438q13 0 22 -9t9 -22v-20q0 -13 -9 -22t-22 -9h-375v-220h322q13 0 22 -9t9 -22v-20q0 -13 -9 -22t-22 -9h-322v-246h385q13 0 22 -9t9 -22v-20q0 -13 -9 -22t-22 -9h-448q-13 0 -22 9t-9 22v650zM310 767q-63 0 -101.5 25.5t-52.5 84.5 q-2 10 1 17.5t13 7.5h18q10 0 14 -6.5t9 -17.5q11 -29 37.5 -41t58.5 -12q36 0 59 12t36 41q5 15 9 19.5t15 4.5h16q9 0 13 -7.5t1 -17.5q-13 -53 -50 -81.5t-96 -28.5z"></glyph><glyph glyph-name="ebreve" unicode="ĕ" d="M34 235q0 58 14 105t42 80.5t71 51.5t101 18q62 0 104.5 -23.5t69 -58t38 -75t11.5 -74.5q0 -12 -5 -19.5t-11 -11.5t-11.5 -5.5t-6.5 -1.5h-329q0 -36 9.5 -66.5t27.5 -53.5t45 -36t62 -13q91 0 124 77q5 13 12.5 21t21.5 6l24 -3q35 -4 18 -44q-25 -60 -79.5 -90.5 t-123.5 -30.5q-55 0 -97.5 19t-72 52.5t-44.5 78.5t-15 97zM397 285q-4 29 -14.5 55t-27.5 45t-42.5 30t-59.5 11q-30 0 -53.5 -12t-40 -31.5t-26 -45t-11.5 -52.5h275zM266 578q-63 0 -101.5 25.5t-52.5 84.5q-2 10 1 17.5t13 7.5h18q10 0 14 -6.5t9 -17.5q11 -29 37.5 -41 t58.5 -12q36 0 59 12t36 41q5 15 9 19.5t15 4.5h16q9 0 13 -7.5t1 -17.5q-13 -53 -50 -81.5t-96 -28.5z"></glyph><glyph glyph-name="Edotaccent" unicode="Ė" d="M71 681q0 13 9 22t22 9h438q13 0 22 -9t9 -22v-20q0 -13 -9 -22t-22 -9h-375v-220h322q13 0 22 -9t9 -22v-20q0 -13 -9 -22t-22 -9h-322v-246h385q13 0 22 -9t9 -22v-20q0 -13 -9 -22t-22 -9h-448q-13 0 -22 9t-9 22v650zM294 775q-13 0 -22 9t-9 22v38q0 13 9 22t22 9 h26q13 0 22 -9t9 -22v-38q0 -13 -9 -22t-22 -9h-26z"></glyph><glyph glyph-name="edotaccent" unicode="ė" d="M34 235q0 58 14 105t42 80.5t71 51.5t101 18q62 0 104.5 -23.5t69 -58t38 -75t11.5 -74.5q0 -12 -5 -19.5t-11 -11.5t-11.5 -5.5t-6.5 -1.5h-329q0 -36 9.5 -66.5t27.5 -53.5t45 -36t62 -13q91 0 124 77q5 13 12.5 21t21.5 6l24 -3q35 -4 18 -44q-25 -60 -79.5 -90.5 t-123.5 -30.5q-55 0 -97.5 19t-72 52.5t-44.5 78.5t-15 97zM397 285q-4 29 -14.5 55t-27.5 45t-42.5 30t-59.5 11q-30 0 -53.5 -12t-40 -31.5t-26 -45t-11.5 -52.5h275zM251 596q-13 0 -22 9t-9 22v38q0 13 9 22t22 9h26q13 0 22 -9t9 -22v-38q0 -13 -9 -22t-22 -9h-26z"></glyph><glyph glyph-name="Eogonek" unicode="Ę" d="M102 0q-13 0 -22 9t-9 22v650q0 13 9 22t22 9h438q13 0 22 -9t9 -22v-20q0 -13 -9 -22t-22 -9h-375v-220h322q13 0 22 -9t9 -22v-20q0 -13 -9 -22t-22 -9h-322v-246h385q13 0 22 -9t9 -22v-20q0 -9 -4.5 -16t-12 -15t-17.5 -18t-22 -25q-21 -26 -34.5 -47t-13.5 -41 q0 -23 11.5 -35t28.5 -12q7 0 12 1t10 1q7 0 12.5 -3.5t5.5 -10.5v-10q0 -10 -6 -14.5t-15 -6.5q-15 -3 -30 -3q-42 0 -73.5 25.5t-31.5 71.5q0 32 27.5 64.5t72.5 62.5h-399z"></glyph><glyph glyph-name="eogonek" unicode="ę" d="M34 235q0 58 14 105t42 80.5t71 51.5t101 18q62 0 104.5 -23.5t69 -58t38 -75t11.5 -74.5q0 -12 -5 -19.5t-11 -11.5t-11.5 -5.5t-6.5 -1.5h-329q0 -36 9.5 -66.5t27.5 -53.5t45 -36t62 -13q91 0 124 77q5 13 12.5 21t21.5 6l24 -3q35 -4 18 -44q-20 -48 -60.5 -77.5 t-92.5 -38.5q-11 -12 -25 -27.5t-26.5 -32t-21 -33t-8.5 -31.5q0 -23 11.5 -35t28.5 -12q7 0 12 1t10 1q7 0 12.5 -3.5t5.5 -10.5v-10q0 -10 -6 -14.5t-15 -6.5q-15 -3 -30 -3q-42 0 -73.5 25.5t-31.5 71.5q0 29 23 58.5t61 57.5q-50 4 -88.5 24.5t-64.5 53.5t-39.5 76 t-13.5 92zM397 285q-4 29 -14.5 55t-27.5 45t-42.5 30t-59.5 11q-30 0 -53.5 -12t-40 -31.5t-26 -45t-11.5 -52.5h275z"></glyph><glyph glyph-name="Ecaron" unicode="Ě" d="M71 681q0 13 9 22t22 9h438q13 0 22 -9t9 -22v-20q0 -13 -9 -22t-22 -9h-375v-220h322q13 0 22 -9t9 -22v-20q0 -13 -9 -22t-22 -9h-322v-246h385q13 0 22 -9t9 -22v-20q0 -13 -9 -22t-22 -9h-448q-13 0 -22 9t-9 22v650zM292 761q-21 0 -29.5 5t-19.5 21l-58 83 q-7 10 -7 18q0 7 4.5 10.5t10.5 3.5h25q8 0 13 -0.5t9 -3t8.5 -8t10.5 -14.5l48 -69l48 69q12 18 20 22t29 4h19q14 0 14 -13q0 -8 -7 -19l-59 -84q-11 -16 -19.5 -20.5t-29.5 -4.5h-30z"></glyph><glyph glyph-name="ecaron" unicode="ě" d="M34 235q0 58 14 105t42 80.5t71 51.5t101 18q62 0 104.5 -23.5t69 -58t38 -75t11.5 -74.5q0 -12 -5 -19.5t-11 -11.5t-11.5 -5.5t-6.5 -1.5h-329q0 -36 9.5 -66.5t27.5 -53.5t45 -36t62 -13q91 0 124 77q5 13 12.5 21t21.5 6l24 -3q35 -4 18 -44q-25 -60 -79.5 -90.5 t-123.5 -30.5q-55 0 -97.5 19t-72 52.5t-44.5 78.5t-15 97zM397 285q-4 29 -14.5 55t-27.5 45t-42.5 30t-59.5 11q-30 0 -53.5 -12t-40 -31.5t-26 -45t-11.5 -52.5h275zM243 572q-21 0 -29.5 5t-19.5 21l-58 83q-7 10 -7 18q0 7 4.5 10.5t10.5 3.5h25q8 0 13 -0.5t9 -3 t8.5 -8t10.5 -14.5l48 -69l48 69q12 18 20 22t29 4h19q14 0 14 -13q0 -8 -7 -19l-59 -84q-11 -16 -19.5 -20.5t-29.5 -4.5h-30z"></glyph><glyph glyph-name="Gcircumflex" unicode="Ĝ" d="M292 761q-6 0 -10.5 3.5t-4.5 10.5q0 8 7 18l58 83q11 16 19.5 21t29.5 5h30q21 0 29.5 -4.5t19.5 -20.5l59 -84q7 -11 7 -19q0 -13 -14 -13h-19q-21 0 -29 4t-20 22l-48 69l-48 -69q-6 -9 -10.5 -14.5t-8.5 -8t-9 -3t-13 -0.5h-25zM49 356q0 69 23.5 136t69.5 120 t112.5 85.5t152.5 32.5q106 0 190 -45t130 -132q7 -13 2.5 -25t-22.5 -17l-34 -9q-14 -4 -23 3t-15 19q-28 56 -82.5 90t-145.5 34q-60 0 -107.5 -23.5t-80.5 -62.5t-50.5 -91t-17.5 -109q0 -59 15 -113t46.5 -95t80 -65.5t114.5 -24.5q56 0 102.5 14.5t80 43t52 71.5 t18.5 100h-215q-13 0 -22 9t-9 22v20q0 13 9 22t22 9h268q13 0 22 -9t9 -22v-319q0 -13 -9 -22t-22 -9h-20q-13 0 -22 9t-9 22v74h-2q-21 -33 -49.5 -55.5t-61 -36t-69 -19.5t-73.5 -6q-83 0 -149.5 27t-113 76.5t-71 118.5t-24.5 152z"></glyph><glyph glyph-name="gcircumflex" unicode="ĝ" d="M163 572q-6 0 -10.5 3.5t-4.5 10.5q0 8 7 18l58 83q11 16 19.5 21t29.5 5h30q21 0 29.5 -4.5t19.5 -20.5l59 -84q7 -11 7 -19q0 -13 -14 -13h-19q-21 0 -29 4t-20 22l-48 69l-48 -69q-6 -9 -10.5 -14.5t-8.5 -8t-9 -3t-13 -0.5h-25zM117 -49q14 0 21 -8.5t10 -22.5 q10 -42 46 -61t82 -19q52 0 80.5 16.5t42 41t16 53.5t2.5 55v68h-2q-35 -45 -72 -65.5t-91 -20.5q-31 0 -69 10.5t-71 38.5t-55.5 76.5t-22.5 125.5q0 52 13 98t40 80t68.5 53.5t97.5 19.5q58 0 98.5 -20.5t63.5 -56.5l2 -1v35q0 13 9 22t22 9h20q13 0 22 -9t9 -22v-451 q0 -27 -5.5 -65t-27.5 -72.5t-66 -58.5t-121 -24q-40 0 -76 8t-64.5 25t-48.5 42.5t-28 61.5q-4 14 1 26t19 12h35zM116 239q0 -38 9.5 -70.5t28.5 -57.5t46 -39t63 -14t64.5 15t48.5 40.5t30.5 59t10.5 69.5q0 49 -11.5 83t-32 55t-48.5 30.5t-62 9.5q-63 0 -105 -44.5 t-42 -136.5z"></glyph><glyph glyph-name="Gbreve" unicode="Ğ" d="M410 767q-63 0 -101.5 25.5t-52.5 84.5q-2 10 1 17.5t13 7.5h18q10 0 14 -6.5t9 -17.5q11 -29 37.5 -41t58.5 -12q36 0 59 12t36 41q5 15 9 19.5t15 4.5h16q9 0 13 -7.5t1 -17.5q-13 -53 -50 -81.5t-96 -28.5zM49 356q0 69 23.5 136t69.5 120t112.5 85.5t152.5 32.5 q106 0 190 -45t130 -132q7 -13 2.5 -25t-22.5 -17l-34 -9q-14 -4 -23 3t-15 19q-28 56 -82.5 90t-145.5 34q-60 0 -107.5 -23.5t-80.5 -62.5t-50.5 -91t-17.5 -109q0 -59 15 -113t46.5 -95t80 -65.5t114.5 -24.5q56 0 102.5 14.5t80 43t52 71.5t18.5 100h-215q-13 0 -22 9 t-9 22v20q0 13 9 22t22 9h268q13 0 22 -9t9 -22v-319q0 -13 -9 -22t-22 -9h-20q-13 0 -22 9t-9 22v74h-2q-21 -33 -49.5 -55.5t-61 -36t-69 -19.5t-73.5 -6q-83 0 -149.5 27t-113 76.5t-71 118.5t-24.5 152z"></glyph><glyph glyph-name="gbreve" unicode="ğ" d="M280 578q-63 0 -101.5 25.5t-52.5 84.5q-2 10 1 17.5t13 7.5h18q10 0 14 -6.5t9 -17.5q11 -29 37.5 -41t58.5 -12q36 0 59 12t36 41q5 15 9 19.5t15 4.5h16q9 0 13 -7.5t1 -17.5q-13 -53 -50 -81.5t-96 -28.5zM117 -49q14 0 21 -8.5t10 -22.5q10 -42 46 -61t82 -19 q52 0 80.5 16.5t42 41t16 53.5t2.5 55v68h-2q-35 -45 -72 -65.5t-91 -20.5q-31 0 -69 10.5t-71 38.5t-55.5 76.5t-22.5 125.5q0 52 13 98t40 80t68.5 53.5t97.5 19.5q58 0 98.5 -20.5t63.5 -56.5l2 -1v35q0 13 9 22t22 9h20q13 0 22 -9t9 -22v-451q0 -27 -5.5 -65 t-27.5 -72.5t-66 -58.5t-121 -24q-40 0 -76 8t-64.5 25t-48.5 42.5t-28 61.5q-4 14 1 26t19 12h35zM116 239q0 -38 9.5 -70.5t28.5 -57.5t46 -39t63 -14t64.5 15t48.5 40.5t30.5 59t10.5 69.5q0 49 -11.5 83t-32 55t-48.5 30.5t-62 9.5q-63 0 -105 -44.5t-42 -136.5z"></glyph><glyph glyph-name="Gdotaccent" unicode="Ġ" d="M394 775q-13 0 -22 9t-9 22v38q0 13 9 22t22 9h26q13 0 22 -9t9 -22v-38q0 -13 -9 -22t-22 -9h-26zM49 356q0 69 23.5 136t69.5 120t112.5 85.5t152.5 32.5q106 0 190 -45t130 -132q7 -13 2.5 -25t-22.5 -17l-34 -9q-14 -4 -23 3t-15 19q-28 56 -82.5 90t-145.5 34 q-60 0 -107.5 -23.5t-80.5 -62.5t-50.5 -91t-17.5 -109q0 -59 15 -113t46.5 -95t80 -65.5t114.5 -24.5q56 0 102.5 14.5t80 43t52 71.5t18.5 100h-215q-13 0 -22 9t-9 22v20q0 13 9 22t22 9h268q13 0 22 -9t9 -22v-319q0 -13 -9 -22t-22 -9h-20q-13 0 -22 9t-9 22v74h-2 q-21 -33 -49.5 -55.5t-61 -36t-69 -19.5t-73.5 -6q-83 0 -149.5 27t-113 76.5t-71 118.5t-24.5 152z"></glyph><glyph glyph-name="gdotaccent" unicode="ġ" d="M266 596q-13 0 -22 9t-9 22v38q0 13 9 22t22 9h26q13 0 22 -9t9 -22v-38q0 -13 -9 -22t-22 -9h-26zM117 -49q14 0 21 -8.5t10 -22.5q10 -42 46 -61t82 -19q52 0 80.5 16.5t42 41t16 53.5t2.5 55v68h-2q-35 -45 -72 -65.5t-91 -20.5q-31 0 -69 10.5t-71 38.5t-55.5 76.5 t-22.5 125.5q0 52 13 98t40 80t68.5 53.5t97.5 19.5q58 0 98.5 -20.5t63.5 -56.5l2 -1v35q0 13 9 22t22 9h20q13 0 22 -9t9 -22v-451q0 -27 -5.5 -65t-27.5 -72.5t-66 -58.5t-121 -24q-40 0 -76 8t-64.5 25t-48.5 42.5t-28 61.5q-4 14 1 26t19 12h35zM116 239 q0 -38 9.5 -70.5t28.5 -57.5t46 -39t63 -14t64.5 15t48.5 40.5t30.5 59t10.5 69.5q0 49 -11.5 83t-32 55t-48.5 30.5t-62 9.5q-63 0 -105 -44.5t-42 -136.5z"></glyph><glyph glyph-name="Gcommaaccent" unicode="Ģ" d="M373 -93q4 14 13 22t23 8h26q23 0 23 -21q0 -6 -3 -13l-44 -97q-6 -13 -13.5 -21t-21.5 -8h-19q-9 0 -13.5 6t-4.5 14q0 4 2 10zM49 356q0 69 23.5 136t69.5 120t112.5 85.5t152.5 32.5q106 0 190 -45t130 -132q7 -13 2.5 -25t-22.5 -17l-34 -9q-14 -4 -23 3t-15 19 q-28 56 -82.5 90t-145.5 34q-60 0 -107.5 -23.5t-80.5 -62.5t-50.5 -91t-17.5 -109q0 -59 15 -113t46.5 -95t80 -65.5t114.5 -24.5q56 0 102.5 14.5t80 43t52 71.5t18.5 100h-215q-13 0 -22 9t-9 22v20q0 13 9 22t22 9h268q13 0 22 -9t9 -22v-319q0 -13 -9 -22t-22 -9h-20 q-13 0 -22 9t-9 22v74h-2q-21 -33 -49.5 -55.5t-61 -36t-69 -19.5t-73.5 -6q-83 0 -149.5 27t-113 76.5t-71 118.5t-24.5 152z"></glyph><glyph glyph-name="gcommaaccent" unicode="ģ" d="M259 552q-23 0 -23 21q0 5 3 13l44 96q6 13 12.5 21.5t20.5 8.5h19q9 0 13 -6.5t4 -14.5q0 -4 -2 -10l-32 -99q-5 -14 -12 -22t-21 -8h-26zM117 -49q14 0 21 -8.5t10 -22.5q10 -42 46 -61t82 -19q52 0 80.5 16.5t42 41t16 53.5t2.5 55v68h-2q-35 -45 -72 -65.5t-91 -20.5 q-31 0 -69 10.5t-71 38.5t-55.5 76.5t-22.5 125.5q0 52 13 98t40 80t68.5 53.5t97.5 19.5q58 0 98.5 -20.5t63.5 -56.5l2 -1v35q0 13 9 22t22 9h20q13 0 22 -9t9 -22v-451q0 -27 -5.5 -65t-27.5 -72.5t-66 -58.5t-121 -24q-40 0 -76 8t-64.5 25t-48.5 42.5t-28 61.5 q-4 14 1 26t19 12h35zM116 239q0 -38 9.5 -70.5t28.5 -57.5t46 -39t63 -14t64.5 15t48.5 40.5t30.5 59t10.5 69.5q0 49 -11.5 83t-32 55t-48.5 30.5t-62 9.5q-63 0 -105 -44.5t-42 -136.5z"></glyph><glyph glyph-name="Hcircumflex" unicode="Ĥ" d="M71 681q0 13 9 22t22 9h32q13 0 22 -9t9 -22v-271h392v271q0 13 9 22t22 9h32q13 0 22 -9t9 -22v-650q0 -13 -9 -22t-22 -9h-32q-13 0 -22 9t-9 22v297h-392v-297q0 -13 -9 -22t-22 -9h-32q-13 0 -22 9t-9 22v650zM245 761q-6 0 -10.5 3.5t-4.5 10.5q0 8 7 18l58 83 q11 16 19.5 21t29.5 5h30q21 0 29.5 -4.5t19.5 -20.5l59 -84q7 -11 7 -19q0 -13 -14 -13h-19q-21 0 -29 4t-20 22l-48 69l-48 -69q-6 -9 -10.5 -14.5t-8.5 -8t-9 -3t-13 -0.5h-25z"></glyph><glyph glyph-name="hcircumflex" unicode="ĥ" d="M63 681q0 13 9 22t22 9h20q13 0 22 -9t9 -22v-267h2q23 37 57.5 56.5t82.5 19.5q36 0 67 -8.5t53.5 -29t35.5 -54t13 -83.5v-284q0 -13 -9 -22t-22 -9h-20q-13 0 -22 9t-9 22v276q0 31 -7.5 51.5t-21 33t-32 17.5t-40.5 5q-57 0 -92.5 -34t-35.5 -92v-257q0 -13 -9 -22 t-22 -9h-20q-13 0 -22 9t-9 22v650zM157 761q-6 0 -10.5 3.5t-4.5 10.5q0 8 7 18l58 83q11 16 19.5 21t29.5 5h30q21 0 29.5 -4.5t19.5 -20.5l59 -84q7 -11 7 -19q0 -13 -14 -13h-19q-21 0 -29 4t-20 22l-48 69l-48 -69q-6 -9 -10.5 -14.5t-8.5 -8t-9 -3t-13 -0.5h-25z"></glyph><glyph glyph-name="Hbar" unicode="Ħ" d="M71 681q0 13 9 22t22 9h32q13 0 22 -9t9 -22v-113h392v113q0 13 9 22t22 9h32q13 0 22 -9t9 -22v-650q0 -13 -9 -22t-22 -9h-32q-13 0 -22 9t-9 22v277h-392v-277q0 -13 -9 -22t-22 -9h-32q-13 0 -22 9t-9 22v650zM557 387v111h-392v-111h392z"></glyph><glyph glyph-name="hbar" unicode="ħ" d="M63 562h-21q-13 0 -21.5 8.5t-8.5 21.5v2q0 12 8.5 20.5t21.5 8.5h21v58q0 13 9 22t22 9h20q13 0 22 -9t9 -22v-58h119q12 0 20.5 -8.5t8.5 -20.5v-2q0 -13 -8.5 -21.5t-20.5 -8.5h-119v-148h2q23 37 57.5 56.5t82.5 19.5q36 0 67 -8.5t53.5 -29t35.5 -54t13 -83.5v-284 q0 -13 -9 -22t-22 -9h-20q-13 0 -22 9t-9 22v276q0 31 -7.5 51.5t-21 33t-32 17.5t-40.5 5q-57 0 -92.5 -34t-35.5 -92v-257q0 -13 -9 -22t-22 -9h-20q-13 0 -22 9t-9 22v531z"></glyph><glyph glyph-name="Itilde" unicode="Ĩ" d="M82 681q0 13 9 22t22 9h32q13 0 22 -9t9 -22v-650q0 -13 -9 -22t-22 -9h-32q-13 0 -22 9t-9 22v650zM-25 770q-8 0 -11 6t-1 15q8 37 33.5 62t67.5 25q20 0 39 -5.5t36 -12.5q17 -8 32.5 -13.5t26.5 -5.5q17 0 29.5 5.5t19.5 17.5q5 10 7.5 16t14.5 6h16q8 0 10 -7t0 -16 q-9 -35 -33.5 -60.5t-65.5 -25.5q-15 0 -34.5 6t-39.5 14q-20 7 -38 12t-32 5q-11 0 -21 -6.5t-16 -15.5q-7 -10 -11.5 -16t-16.5 -6h-12z"></glyph><glyph glyph-name="itilde" unicode="ĩ" d="M61 447q0 13 9 22t22 9h20q13 0 22 -9t9 -22v-416q0 -13 -9 -22t-22 -9h-20q-13 0 -22 9t-9 22v416zM-51 581q-8 0 -11 6t-1 15q8 37 33.5 62t67.5 25q20 0 39 -5.5t36 -12.5q17 -8 32.5 -13.5t26.5 -5.5q17 0 29.5 5.5t19.5 17.5q5 10 7.5 16t14.5 6h16q8 0 10 -7t0 -16 q-9 -35 -33.5 -60.5t-65.5 -25.5q-15 0 -34.5 6t-39.5 14q-20 7 -38 12t-32 5q-11 0 -21 -6.5t-16 -15.5q-7 -10 -11.5 -16t-16.5 -6h-12z"></glyph><glyph glyph-name="Imacron" unicode="Ī" d="M82 681q0 13 9 22t22 9h32q13 0 22 -9t9 -22v-650q0 -13 -9 -22t-22 -9h-32q-13 0 -22 9t-9 22v650zM19 801q-11 0 -19.5 8.5t-8.5 19.5v2q0 11 8.5 19.5t19.5 8.5h218q11 0 19.5 -8.5t8.5 -19.5v-2q0 -11 -8.5 -19.5t-19.5 -8.5h-218z"></glyph><glyph glyph-name="imacron" unicode="ī" d="M61 447q0 13 9 22t22 9h20q13 0 22 -9t9 -22v-416q0 -13 -9 -22t-22 -9h-20q-13 0 -22 9t-9 22v416zM-5 622q-11 0 -19.5 6t-8.5 17v10q0 11 8.5 18t19.5 7h218q11 0 19.5 -6t8.5 -17v-10q0 -11 -8.5 -18t-19.5 -7h-218z"></glyph><glyph glyph-name="Iogonek" unicode="Į" d="M112 0q-13 0 -21.5 9t-8.5 22v650q0 13 9 22t22 9h32q13 0 22 -9t9 -22v-650q0 -23 -11 -39.5t-22 -30.5q-15 -18 -30 -44t-15 -48q0 -23 11.5 -35t28.5 -12q7 0 12 1t10 1q7 0 12.5 -3.5t5.5 -10.5v-10q0 -10 -6 -14.5t-15 -6.5q-15 -3 -30 -3q-42 0 -73.5 25.5 t-31.5 71.5q0 33 24 65t63 60z"></glyph><glyph glyph-name="iogonek" unicode="į" d="M-11 -127q0 35 26 70.5t65 58.5q-9 3 -14 11t-5 18v416q0 13 9 22t22 9h20q13 0 22 -9t9 -22v-416q0 -25 -10 -38.5t-23 -30.5q-16 -21 -30.5 -44t-14.5 -49q0 -23 11.5 -35t28.5 -12q7 0 12 1t10 1q7 0 12.5 -3.5t5.5 -10.5v-10q0 -10 -6 -14.5t-15 -6.5q-15 -3 -30 -3 q-42 0 -73.5 25.5t-31.5 71.5zM92 618q-13 0 -22 9t-9 22v32q0 13 9 22t22 9h20q13 0 22 -9t9 -22v-32q0 -13 -9 -22t-22 -9h-20z"></glyph><glyph glyph-name="Idotaccent" unicode="İ" d="M82 681q0 13 9 22t22 9h32q13 0 22 -9t9 -22v-650q0 -13 -9 -22t-22 -9h-32q-13 0 -22 9t-9 22v650zM115 775q-13 0 -22 9t-9 22v38q0 13 9 22t22 9h26q13 0 22 -9t9 -22v-38q0 -13 -9 -22t-22 -9h-26z"></glyph><glyph glyph-name="dotlessi" unicode="ı" d="M61 447q0 13 9 22t22 9h20q13 0 22 -9t9 -22v-416q0 -13 -9 -22t-22 -9h-20q-13 0 -22 9t-9 22v416z"></glyph><glyph glyph-name="Jcircumflex" unicode="Ĵ" d="M17 48q0 17 8 25t19 8q13 0 23 -2.5t33 -2.5q36 0 58 9t34 26.5t16.5 42t4.5 56.5v471q0 13 9 22t22 9h32q13 0 22 -9t9 -22v-527q0 -33 -11.5 -64t-35.5 -55t-60.5 -38.5t-86.5 -14.5q-53 0 -74.5 10.5t-21.5 34.5v21zM137 761q-6 0 -10.5 3.5t-4.5 10.5q0 8 7 18l58 83 q11 16 19.5 21t29.5 5h30q21 0 29.5 -4.5t19.5 -20.5l59 -84q7 -11 7 -19q0 -13 -14 -13h-19q-21 0 -29 4t-20 22l-48 69l-48 -69q-6 -9 -10.5 -14.5t-8.5 -8t-9 -3t-13 -0.5h-25z"></glyph><glyph glyph-name="jcircumflex" unicode="ĵ" d="M61 447q0 13 9 22t22 9h20q13 0 22 -9t9 -22v-539q0 -32 -4 -58.5t-16.5 -45.5t-35 -29.5t-59.5 -10.5q-35 0 -44.5 7.5t-9.5 23.5v20q0 6 5 13.5t17 7.5q4 0 7.5 -0.5t11.5 -0.5q18 0 32 12t14 42v558zM-15 572q-6 0 -10.5 3.5t-4.5 10.5q0 8 7 18l58 83q11 16 19.5 21 t29.5 5h30q21 0 29.5 -4.5t19.5 -20.5l59 -84q7 -11 7 -19q0 -13 -14 -13h-19q-21 0 -29 4t-20 22l-48 69l-48 -69q-6 -9 -10.5 -14.5t-8.5 -8t-9 -3t-13 -0.5h-25z"></glyph><glyph glyph-name="Kcommaaccent" unicode="Ķ" d="M71 681q0 13 9 22t22 9h32q13 0 22 -9t9 -22v-314l303 309q17 17 31 26.5t36 9.5h39q22 0 22 -15q0 -6 -5 -13t-12 -14l-245 -252l271 -381q14 -19 6.5 -28t-24.5 -9h-34q-18 0 -31 6t-23 20l-230 324l-104 -102v-217q0 -13 -9 -22t-22 -9h-32q-13 0 -22 9t-9 22v650z M286 -93q4 14 13 22t23 8h26q23 0 23 -21q0 -6 -3 -13l-44 -97q-6 -13 -13.5 -21t-21.5 -8h-19q-9 0 -13.5 6t-4.5 14q0 4 2 10z"></glyph><glyph glyph-name="kcommaaccent" unicode="ķ" d="M63 681q0 13 9 22t22 9h20q13 0 22 -9t9 -22v-408l167 180q7 7 12 11.5t10 7t12 3.5t18 1h26q12 0 16 -4t4 -11q0 -10 -15 -25l-137 -149l190 -254q12 -16 5.5 -24.5t-19.5 -8.5h-33q-18 0 -28.5 4.5t-21.5 20.5l-149 203l-57 -61v-136q0 -13 -9 -22t-22 -9h-20 q-13 0 -22 9t-9 22v650zM211 -94q4 14 13 22t23 8h26q23 0 23 -21q0 -6 -3 -13l-44 -97q-6 -13 -13.5 -21t-21.5 -8h-19q-9 0 -13.5 6t-4.5 14q0 4 2 10z"></glyph><glyph glyph-name="Lacute" unicode="Ĺ" d="M71 681q0 13 9 22t22 9h32q13 0 22 -9t9 -22v-599h324q13 0 22 -9t9 -22v-20q0 -13 -9 -22t-22 -9h-387q-13 0 -22 9t-9 22v650zM108 761q-8 0 -13.5 5t-5.5 13q0 7 6 18l49 78q11 18 18.5 22.5t21.5 4.5h46q5 0 10 -4.5t5 -12.5q0 -7 -8 -17l-77 -84q-14 -16 -21 -19.5 t-23 -3.5h-8z"></glyph><glyph glyph-name="lacute" unicode="ĺ" d="M61 681q0 13 9 22t22 9h20q13 0 22 -9t9 -22v-650q0 -13 -9 -22t-22 -9h-20q-13 0 -22 9t-9 22v650zM87 761q-8 0 -13.5 5t-5.5 13q0 7 6 18l49 78q11 18 18.5 22.5t21.5 4.5h46q5 0 10 -4.5t5 -12.5q0 -7 -8 -17l-77 -84q-14 -16 -21 -19.5t-23 -3.5h-8z"></glyph><glyph glyph-name="Lcommaaccent" unicode="Ļ" d="M71 681q0 13 9 22t22 9h32q13 0 22 -9t9 -22v-599h324q13 0 22 -9t9 -22v-20q0 -13 -9 -22t-22 -9h-387q-13 0 -22 9t-9 22v650zM251 -93q4 14 13 22t23 8h26q23 0 23 -21q0 -6 -3 -13l-44 -97q-6 -13 -13.5 -21t-21.5 -8h-19q-9 0 -13.5 6t-4.5 14q0 4 2 10z"></glyph><glyph glyph-name="lcommaaccent" unicode="ļ" d="M61 681q0 13 9 22t22 9h20q13 0 22 -9t9 -22v-650q0 -13 -9 -22t-22 -9h-20q-13 0 -22 9t-9 22v650zM46 -94q4 14 13 22t23 8h26q23 0 23 -21q0 -6 -3 -13l-44 -97q-6 -13 -13.5 -21t-21.5 -8h-19q-9 0 -13.5 6t-4.5 14q0 4 2 10z"></glyph><glyph glyph-name="Lcaron" unicode="Ľ" d="M71 681q0 13 9 22t22 9h32q13 0 22 -9t9 -22v-599h324q13 0 22 -9t9 -22v-20q0 -13 -9 -22t-22 -9h-387q-13 0 -22 9t-9 22v650zM263 537q-11 0 -17.5 6.5t-4.5 21.5l18 116q3 18 13 24.5t23 6.5h20q11 0 19 -6t3 -24l-33 -118q-5 -16 -14 -21.5t-21 -5.5h-6z"></glyph><glyph glyph-name="lcaron" unicode="ľ" d="M61 681q0 13 9 22t22 9h20q13 0 22 -9t9 -22v-650q0 -13 -9 -22t-22 -9h-20q-13 0 -22 9t-9 22v650zM205 537q-11 0 -17.5 6.5t-4.5 21.5l18 116q3 18 13 24.5t23 6.5h20q11 0 19 -6t3 -24l-33 -118q-5 -16 -14 -21.5t-21 -5.5h-6z"></glyph><glyph glyph-name="Ldot" unicode="Ŀ" d="M71 681q0 13 9 22t22 9h32q13 0 22 -9t9 -22v-599h324q13 0 22 -9t9 -22v-20q0 -13 -9 -22t-22 -9h-387q-13 0 -22 9t-9 22v650zM316 318q-13 0 -22 9t-9 22v38q0 13 9 22t22 9h26q13 0 22 -9t9 -22v-38q0 -13 -9 -22t-22 -9h-26z"></glyph><glyph glyph-name="ldot" unicode="ŀ" d="M61 681q0 13 9 22t22 9h20q13 0 22 -9t9 -22v-650q0 -13 -9 -22t-22 -9h-20q-13 0 -22 9t-9 22v650zM241 318q-13 0 -22 9t-9 22v38q0 13 9 22t22 9h26q13 0 22 -9t9 -22v-38q0 -13 -9 -22t-22 -9h-26z"></glyph><glyph glyph-name="Lslash" unicode="Ł" d="M71 287l-27 -16q-9 -5 -18 -0.5t-9 15.5v17q0 14 6.5 24t20.5 18l27 16v320q0 13 9 22t22 9h32q13 0 22 -9t9 -22v-265l154 91q9 5 18 0.5t9 -15.5v-19q0 -14 -5 -22t-22 -18l-154 -91v-260h324q13 0 22 -9t9 -22v-20q0 -13 -9 -22t-22 -9h-387q-13 0 -22 9t-9 22v256z "></glyph><glyph glyph-name="lslash" unicode="ł" d="M61 344l-39 -28q-8 -5 -16.5 -1.5t-8.5 13.5v15q0 6 0.5 10.5t2.5 9t7.5 9t14.5 11.5l39 28v270q0 13 9 22t22 9h20q13 0 22 -9t9 -22v-211l39 28q8 5 16.5 1t8.5 -14v-16q0 -14 -3 -19.5t-22 -18.5l-39 -28v-372q0 -13 -9 -22t-22 -9h-20q-13 0 -22 9t-9 22v313z"></glyph><glyph glyph-name="Nacute" unicode="Ń" d="M71 681q0 13 9 22t22 9h36q27 0 45 -26l360 -536h2v531q0 13 9 22t22 9h26q13 0 22 -9t9 -22v-650q0 -13 -9 -22t-22 -9h-35q-28 0 -46 26l-360 535h-2v-530q0 -13 -9 -22t-22 -9h-26q-13 0 -22 9t-9 22v650zM349 761q-8 0 -13.5 5t-5.5 13q0 7 6 18l49 78 q11 18 18.5 22.5t21.5 4.5h46q5 0 10 -4.5t5 -12.5q0 -7 -8 -17l-77 -84q-14 -16 -21 -19.5t-23 -3.5h-8z"></glyph><glyph glyph-name="nacute" unicode="ń" d="M63 447q0 13 9 22t22 9h20q13 0 22 -9t9 -22v-33h2q24 36 58 56t82 20q36 0 67 -8.5t53.5 -29t35.5 -54t13 -83.5v-284q0 -13 -9 -22t-22 -9h-20q-13 0 -22 9t-9 22v276q0 31 -7.5 51.5t-21 33t-32 17.5t-40.5 5q-57 0 -92.5 -34t-35.5 -92v-257q0 -13 -9 -22t-22 -9h-20 q-13 0 -22 9t-9 22v416zM243 572q-8 0 -13.5 5t-5.5 13q0 7 6 18l49 78q11 18 18.5 22.5t21.5 4.5h46q5 0 10 -4.5t5 -12.5q0 -7 -8 -17l-77 -84q-14 -16 -21 -19.5t-23 -3.5h-8z"></glyph><glyph glyph-name="Ncommaaccent" unicode="Ņ" d="M71 681q0 13 9 22t22 9h36q27 0 45 -26l360 -536h2v531q0 13 9 22t22 9h26q13 0 22 -9t9 -22v-650q0 -13 -9 -22t-22 -9h-35q-28 0 -46 26l-360 535h-2v-530q0 -13 -9 -22t-22 -9h-26q-13 0 -22 9t-9 22v650zM319 -93q4 14 13 22t23 8h26q23 0 23 -21q0 -6 -3 -13 l-44 -97q-6 -13 -13.5 -21t-21.5 -8h-19q-9 0 -13.5 6t-4.5 14q0 4 2 10z"></glyph><glyph glyph-name="ncommaaccent" unicode="ņ" d="M63 447q0 13 9 22t22 9h20q13 0 22 -9t9 -22v-33h2q24 36 58 56t82 20q36 0 67 -8.5t53.5 -29t35.5 -54t13 -83.5v-284q0 -13 -9 -22t-22 -9h-20q-13 0 -22 9t-9 22v276q0 31 -7.5 51.5t-21 33t-32 17.5t-40.5 5q-57 0 -92.5 -34t-35.5 -92v-257q0 -13 -9 -22t-22 -9h-20 q-13 0 -22 9t-9 22v416zM217 -94q4 14 13 22t23 8h26q23 0 23 -21q0 -6 -3 -13l-44 -97q-6 -13 -13.5 -21t-21.5 -8h-19q-9 0 -13.5 6t-4.5 14q0 4 2 10z"></glyph><glyph glyph-name="Ncaron" unicode="Ň" d="M71 681q0 13 9 22t22 9h36q27 0 45 -26l360 -536h2v531q0 13 9 22t22 9h26q13 0 22 -9t9 -22v-650q0 -13 -9 -22t-22 -9h-35q-28 0 -46 26l-360 535h-2v-530q0 -13 -9 -22t-22 -9h-26q-13 0 -22 9t-9 22v650zM348 761q-21 0 -29.5 5t-19.5 21l-58 83q-7 10 -7 18 q0 7 4.5 10.5t10.5 3.5h25q8 0 13 -0.5t9 -3t8.5 -8t10.5 -14.5l48 -69l48 69q12 18 20 22t29 4h19q14 0 14 -13q0 -8 -7 -19l-59 -84q-11 -16 -19.5 -20.5t-29.5 -4.5h-30z"></glyph><glyph glyph-name="ncaron" unicode="ň" d="M63 447q0 13 9 22t22 9h20q13 0 22 -9t9 -22v-33h2q24 36 58 56t82 20q36 0 67 -8.5t53.5 -29t35.5 -54t13 -83.5v-284q0 -13 -9 -22t-22 -9h-20q-13 0 -22 9t-9 22v276q0 31 -7.5 51.5t-21 33t-32 17.5t-40.5 5q-57 0 -92.5 -34t-35.5 -92v-257q0 -13 -9 -22t-22 -9h-20 q-13 0 -22 9t-9 22v416zM249 572q-21 0 -29.5 5t-19.5 21l-58 83q-7 10 -7 18q0 7 4.5 10.5t10.5 3.5h25q8 0 13 -0.5t9 -3t8.5 -8t10.5 -14.5l48 -69l48 69q12 18 20 22t29 4h19q14 0 14 -13q0 -8 -7 -19l-59 -84q-11 -16 -19.5 -20.5t-29.5 -4.5h-30z"></glyph><glyph glyph-name="Omacron" unicode="Ō" d="M49 356q0 83 24.5 152t71 118.5t113 76.5t149.5 27t149.5 -27t113 -76.5t71 -118.5t24.5 -152t-24.5 -152t-71 -118.5t-113 -76.5t-149.5 -27t-149.5 27t-113 76.5t-71 118.5t-24.5 152zM151 356q0 -59 15 -113t46.5 -95t80 -65.5t114.5 -24.5t114 24.5t79.5 65.5t47 95 t15.5 113t-15.5 113t-47 95t-79.5 65.5t-114 24.5t-114.5 -24.5t-80 -65.5t-46.5 -95t-15 -113zM302 801q-11 0 -19.5 8.5t-8.5 19.5v2q0 11 8.5 19.5t19.5 8.5h218q11 0 19.5 -8.5t8.5 -19.5v-2q0 -11 -8.5 -19.5t-19.5 -8.5h-218z"></glyph><glyph glyph-name="omacron" unicode="ō" d="M34 239q0 54 16 100t46 79.5t73.5 52.5t98.5 19t98.5 -19t73.5 -52.5t46 -79.5t16 -100t-16 -100t-46 -79.5t-73.5 -52.5t-98.5 -19t-98.5 19t-73.5 52.5t-46 79.5t-16 100zM122 239q0 -30 6 -62.5t22.5 -60.5t45 -46t72.5 -18t72.5 18t45 46t22.5 60.5t6 62.5t-6 62.5 t-22.5 60.5t-45 46t-72.5 18t-72.5 -18t-45 -46t-22.5 -60.5t-6 -62.5zM163 622q-11 0 -19.5 6t-8.5 17v10q0 11 8.5 18t19.5 7h218q11 0 19.5 -6t8.5 -17v-10q0 -11 -8.5 -18t-19.5 -7h-218z"></glyph><glyph glyph-name="Obreve" unicode="Ŏ" d="M49 356q0 83 24.5 152t71 118.5t113 76.5t149.5 27t149.5 -27t113 -76.5t71 -118.5t24.5 -152t-24.5 -152t-71 -118.5t-113 -76.5t-149.5 -27t-149.5 27t-113 76.5t-71 118.5t-24.5 152zM151 356q0 -59 15 -113t46.5 -95t80 -65.5t114.5 -24.5t114 24.5t79.5 65.5t47 95 t15.5 113t-15.5 113t-47 95t-79.5 65.5t-114 24.5t-114.5 -24.5t-80 -65.5t-46.5 -95t-15 -113zM411 767q-63 0 -101.5 25.5t-52.5 84.5q-2 10 1 17.5t13 7.5h18q10 0 14 -6.5t9 -17.5q11 -29 37.5 -41t58.5 -12q36 0 59 12t36 41q5 15 9 19.5t15 4.5h16q9 0 13 -7.5 t1 -17.5q-13 -53 -50 -81.5t-96 -28.5z"></glyph><glyph glyph-name="obreve" unicode="ŏ" d="M34 239q0 54 16 100t46 79.5t73.5 52.5t98.5 19t98.5 -19t73.5 -52.5t46 -79.5t16 -100t-16 -100t-46 -79.5t-73.5 -52.5t-98.5 -19t-98.5 19t-73.5 52.5t-46 79.5t-16 100zM122 239q0 -30 6 -62.5t22.5 -60.5t45 -46t72.5 -18t72.5 18t45 46t22.5 60.5t6 62.5t-6 62.5 t-22.5 60.5t-45 46t-72.5 18t-72.5 -18t-45 -46t-22.5 -60.5t-6 -62.5zM275 578q-63 0 -101.5 25.5t-52.5 84.5q-2 10 1 17.5t13 7.5h18q10 0 14 -6.5t9 -17.5q11 -29 37.5 -41t58.5 -12q36 0 59 12t36 41q5 15 9 19.5t15 4.5h16q9 0 13 -7.5t1 -17.5q-13 -53 -50 -81.5 t-96 -28.5z"></glyph><glyph glyph-name="Ohungarumlaut" unicode="Ő" d="M49 356q0 83 24.5 152t71 118.5t113 76.5t149.5 27t149.5 -27t113 -76.5t71 -118.5t24.5 -152t-24.5 -152t-71 -118.5t-113 -76.5t-149.5 -27t-149.5 27t-113 76.5t-71 118.5t-24.5 152zM151 356q0 -59 15 -113t46.5 -95t80 -65.5t114.5 -24.5t114 24.5t79.5 65.5t47 95 t15.5 113t-15.5 113t-47 95t-79.5 65.5t-114 24.5t-114.5 -24.5t-80 -65.5t-46.5 -95t-15 -113zM481 761q-8 0 -13.5 5t-5.5 13q0 7 6 18l49 78q11 18 18.5 22.5t21.5 4.5h46q5 0 10 -4.5t5 -12.5q0 -7 -8 -17l-77 -84q-14 -16 -21 -19.5t-23 -3.5h-8zM300 761q-8 0 -13.5 5 t-5.5 13q0 7 6 18l49 78q11 18 18.5 22.5t21.5 4.5h46q5 0 10 -4.5t5 -12.5q0 -7 -8 -17l-77 -84q-14 -16 -21 -19.5t-23 -3.5h-8z"></glyph><glyph glyph-name="ohungarumlaut" unicode="ő" d="M34 239q0 54 16 100t46 79.5t73.5 52.5t98.5 19t98.5 -19t73.5 -52.5t46 -79.5t16 -100t-16 -100t-46 -79.5t-73.5 -52.5t-98.5 -19t-98.5 19t-73.5 52.5t-46 79.5t-16 100zM122 239q0 -30 6 -62.5t22.5 -60.5t45 -46t72.5 -18t72.5 18t45 46t22.5 60.5t6 62.5t-6 62.5 t-22.5 60.5t-45 46t-72.5 18t-72.5 -18t-45 -46t-22.5 -60.5t-6 -62.5zM343 572q-8 0 -13.5 5t-5.5 13q0 7 6 18l49 78q11 18 18.5 22.5t21.5 4.5h46q5 0 10 -4.5t5 -12.5q0 -7 -8 -17l-77 -84q-14 -16 -21 -19.5t-23 -3.5h-8zM162 572q-8 0 -13.5 5t-5.5 13q0 7 6 18l49 78 q11 18 18.5 22.5t21.5 4.5h46q5 0 10 -4.5t5 -12.5q0 -7 -8 -17l-77 -84q-14 -16 -21 -19.5t-23 -3.5h-8z"></glyph><glyph glyph-name="OE" unicode="Œ" d="M49 356q0 74 22 141.5t64.5 119.5t105.5 82.5t144 30.5q66 0 127 -20t106 -68v39q0 13 9 22t22 9h442q13 0 22 -9t9 -22v-20q0 -13 -9 -22t-22 -9h-379v-220h299q13 0 22 -9t9 -22v-20q0 -13 -9 -22t-22 -9h-299v-246h388q13 0 22 -9t9 -22v-20q0 -13 -9 -22t-22 -9h-451 q-13 0 -22 9t-9 22v48q-45 -48 -106.5 -72.5t-127.5 -24.5q-80 0 -142 29t-105 79.5t-65.5 118.5t-22.5 147zM151 356q0 -56 14.5 -109.5t44.5 -95.5t76 -67.5t109 -25.5q54 0 96 22t70 61t42.5 94t14.5 121q0 55 -10 108.5t-35.5 95.5t-68.5 68t-109 26q-63 0 -109 -25.5 t-76 -67.5t-44.5 -95.5t-14.5 -109.5z"></glyph><glyph glyph-name="oe" unicode="œ" d="M625 50q37 0 65.5 17.5t45.5 55.5q5 13 12.5 21t21.5 6l24 -3q35 -4 18 -44q-12 -29 -34 -50.5t-48.5 -36t-56 -21.5t-57.5 -7q-55 0 -103.5 22t-77.5 70q-26 -43 -69.5 -67.5t-106.5 -24.5q-51 0 -93 19t-71 52.5t-45 79.5t-16 100t16 100t45 79.5t71 52.5t93 19 q57 0 105.5 -20t73.5 -66q32 45 74 65.5t93 20.5q59 0 101.5 -19t70 -51.5t41.5 -76t17 -91.5q1 -15 -10 -26t-27 -11h-320q0 -32 10 -61.5t29 -52.5t46.5 -37t61.5 -14zM748 279q-3 28 -13.5 54.5t-28.5 47t-42 33t-54 12.5q-28 0 -52 -13t-42 -34t-28 -47t-10 -53h270z M259 52q41 0 67.5 18t42 46t21.5 60.5t6 62.5t-6 62.5t-21.5 60.5t-42 46t-67.5 18t-67.5 -18t-42 -46t-21.5 -60.5t-6 -62.5t6 -62.5t21.5 -60.5t42 -46t67.5 -18z"></glyph><glyph glyph-name="Racute" unicode="Ŕ" d="M71 681q0 13 9 22t22 9h291q42 0 83 -9.5t73.5 -32.5t52.5 -62.5t20 -100.5q0 -34 -8.5 -66.5t-27.5 -59.5t-51 -46.5t-78 -26.5l166 -261q5 -8 8.5 -15t3.5 -12q0 -11 -10 -15.5t-25 -4.5h-30q-14 0 -27 7t-21 19l-175 276h-182v-271q0 -13 -9 -22t-22 -9h-32 q-13 0 -22 9t-9 22v650zM378 384q33 0 60.5 6t47.5 20t31 37.5t11 59.5q0 35 -11 58.5t-31 38t-47.5 20.5t-60.5 6h-213v-246h213zM294 761q-8 0 -13.5 5t-5.5 13q0 7 6 18l49 78q11 18 18.5 22.5t21.5 4.5h46q5 0 10 -4.5t5 -12.5q0 -7 -8 -17l-77 -84q-14 -16 -21 -19.5 t-23 -3.5h-8z"></glyph><glyph glyph-name="racute" unicode="ŕ" d="M63 447q0 13 9 22t22 9h20q13 0 22 -9t9 -22v-51h2q50 86 146 86q23 0 23 -20v-37q0 -22 -14.5 -25.5t-40.5 -3.5q-30 0 -51.5 -12.5t-36 -31t-21.5 -41t-7 -43.5v-237q0 -13 -9 -22t-22 -9h-20q-13 0 -22 9t-9 22v416zM176 572q-8 0 -13.5 5t-5.5 13q0 7 6 18l49 78 q11 18 18.5 22.5t21.5 4.5h46q5 0 10 -4.5t5 -12.5q0 -7 -8 -17l-77 -84q-14 -16 -21 -19.5t-23 -3.5h-8z"></glyph><glyph glyph-name="Rcommaaccent" unicode="Ŗ" d="M71 681q0 13 9 22t22 9h291q42 0 83 -9.5t73.5 -32.5t52.5 -62.5t20 -100.5q0 -34 -8.5 -66.5t-27.5 -59.5t-51 -46.5t-78 -26.5l166 -261q5 -8 8.5 -15t3.5 -12q0 -11 -10 -15.5t-25 -4.5h-30q-14 0 -27 7t-21 19l-175 276h-182v-271q0 -13 -9 -22t-22 -9h-32 q-13 0 -22 9t-9 22v650zM378 384q33 0 60.5 6t47.5 20t31 37.5t11 59.5q0 35 -11 58.5t-31 38t-47.5 20.5t-60.5 6h-213v-246h213zM305 -93q4 14 13 22t23 8h26q23 0 23 -21q0 -6 -3 -13l-44 -97q-6 -13 -13.5 -21t-21.5 -8h-19q-9 0 -13.5 6t-4.5 14q0 4 2 10z"></glyph><glyph glyph-name="rcommaaccent" unicode="ŗ" d="M63 447q0 13 9 22t22 9h20q13 0 22 -9t9 -22v-51h2q50 86 146 86q23 0 23 -20v-37q0 -22 -14.5 -25.5t-40.5 -3.5q-30 0 -51.5 -12.5t-36 -31t-21.5 -41t-7 -43.5v-237q0 -13 -9 -22t-22 -9h-20q-13 0 -22 9t-9 22v416zM47 -94q4 14 13 22t23 8h26q23 0 23 -21 q0 -6 -3 -13l-44 -97q-6 -13 -13.5 -21t-21.5 -8h-19q-9 0 -13.5 6t-4.5 14q0 4 2 10z"></glyph><glyph glyph-name="Rcaron" unicode="Ř" d="M71 681q0 13 9 22t22 9h291q42 0 83 -9.5t73.5 -32.5t52.5 -62.5t20 -100.5q0 -34 -8.5 -66.5t-27.5 -59.5t-51 -46.5t-78 -26.5l166 -261q5 -8 8.5 -15t3.5 -12q0 -11 -10 -15.5t-25 -4.5h-30q-14 0 -27 7t-21 19l-175 276h-182v-271q0 -13 -9 -22t-22 -9h-32 q-13 0 -22 9t-9 22v650zM378 384q33 0 60.5 6t47.5 20t31 37.5t11 59.5q0 35 -11 58.5t-31 38t-47.5 20.5t-60.5 6h-213v-246h213zM303 761q-21 0 -29.5 5t-19.5 21l-58 83q-7 10 -7 18q0 7 4.5 10.5t10.5 3.5h25q8 0 13 -0.5t9 -3t8.5 -8t10.5 -14.5l48 -69l48 69 q12 18 20 22t29 4h19q14 0 14 -13q0 -8 -7 -19l-59 -84q-11 -16 -19.5 -20.5t-29.5 -4.5h-30z"></glyph><glyph glyph-name="rcaron" unicode="ř" d="M63 447q0 13 9 22t22 9h20q13 0 22 -9t9 -22v-51h2q50 86 146 86q23 0 23 -20v-37q0 -22 -14.5 -25.5t-40.5 -3.5q-30 0 -51.5 -12.5t-36 -31t-21.5 -41t-7 -43.5v-237q0 -13 -9 -22t-22 -9h-20q-13 0 -22 9t-9 22v416zM180 572q-21 0 -29.5 5t-19.5 21l-58 83 q-7 10 -7 18q0 7 4.5 10.5t10.5 3.5h25q8 0 13 -0.5t9 -3t8.5 -8t10.5 -14.5l48 -69l48 69q12 18 20 22t29 4h19q14 0 14 -13q0 -8 -7 -19l-59 -84q-11 -16 -19.5 -20.5t-29.5 -4.5h-30z"></glyph><glyph glyph-name="Sacute" unicode="Ś" d="M320 761q-8 0 -13.5 5t-5.5 13q0 7 6 18l49 78q11 18 18.5 22.5t21.5 4.5h46q5 0 10 -4.5t5 -12.5q0 -7 -8 -17l-77 -84q-14 -16 -21 -19.5t-23 -3.5h-8zM43 197q-2 13 5 24t26 13l32 3q20 2 28 -6.5t10 -21.5q11 -81 66 -116t140 -35q34 0 65.5 8t56 25t39.5 44t15 65 q0 37 -19.5 59.5t-51 37t-72.5 23.5t-83 18t-83 21t-72.5 33t-51 53t-19.5 82q0 52 22.5 90t59 63t82 37.5t91.5 12.5q106 0 181.5 -46t97.5 -138q4 -14 -3.5 -26.5t-22.5 -13.5l-32 -1q-28 -1 -36 35q-11 51 -59.5 82.5t-119.5 31.5q-25 0 -53 -5t-51.5 -17t-39 -33 t-15.5 -52q0 -35 19.5 -56.5t51 -35t72.5 -22t83 -18t83 -23t72.5 -37t51 -60t19.5 -92.5q0 -57 -24 -98.5t-62.5 -68.5t-87.5 -40.5t-100 -13.5q-59 0 -111.5 12t-94 37.5t-69 66.5t-36.5 99z"></glyph><glyph glyph-name="sacute" unicode="ś" d="M223 572q-8 0 -13.5 5t-5.5 13q0 7 6 18l49 78q11 18 18.5 22.5t21.5 4.5h46q5 0 10 -4.5t5 -12.5q0 -7 -8 -17l-77 -84q-14 -16 -21 -19.5t-23 -3.5h-8zM243 -12q-39 0 -70.5 8t-62.5 26q-16 9 -29.5 23t-23 29t-15 30t-5.5 28t5 20t20 9l27 3q16 2 23 -6t10 -21 q6 -24 19 -40.5t31 -26t39.5 -14t43.5 -4.5q14 0 32.5 3t35 12t28 25t11.5 42q0 30 -23 44.5t-58 23t-75 15.5t-75 21t-58 40t-23 73q0 36 16 62.5t42 43.5t58 25t64 8q23 0 54.5 -5.5t61.5 -20.5q13 -6 28 -17t28 -24.5t21.5 -29.5t8.5 -33q0 -12 -4.5 -20t-21.5 -10 l-24 -3q-14 -2 -22 6.5t-12 21.5q-11 36 -43.5 53.5t-70.5 17.5q-17 0 -35 -3t-33 -11t-24.5 -21.5t-9.5 -35.5q0 -27 23.5 -40.5t59 -22.5t76.5 -17t76.5 -23t59 -42.5t23.5 -74.5q0 -38 -17.5 -65.5t-47 -45.5t-66.5 -27t-76 -9z"></glyph><glyph glyph-name="Scircumflex" unicode="Ŝ" d="M225 761q-6 0 -10.5 3.5t-4.5 10.5q0 8 7 18l58 83q11 16 19.5 21t29.5 5h30q21 0 29.5 -4.5t19.5 -20.5l59 -84q7 -11 7 -19q0 -13 -14 -13h-19q-21 0 -29 4t-20 22l-48 69l-48 -69q-6 -9 -10.5 -14.5t-8.5 -8t-9 -3t-13 -0.5h-25zM43 197q-2 13 5 24t26 13l32 3 q20 2 28 -6.5t10 -21.5q11 -81 66 -116t140 -35q34 0 65.5 8t56 25t39.5 44t15 65q0 37 -19.5 59.5t-51 37t-72.5 23.5t-83 18t-83 21t-72.5 33t-51 53t-19.5 82q0 52 22.5 90t59 63t82 37.5t91.5 12.5q106 0 181.5 -46t97.5 -138q4 -14 -3.5 -26.5t-22.5 -13.5l-32 -1 q-28 -1 -36 35q-11 51 -59.5 82.5t-119.5 31.5q-25 0 -53 -5t-51.5 -17t-39 -33t-15.5 -52q0 -35 19.5 -56.5t51 -35t72.5 -22t83 -18t83 -23t72.5 -37t51 -60t19.5 -92.5q0 -57 -24 -98.5t-62.5 -68.5t-87.5 -40.5t-100 -13.5q-59 0 -111.5 12t-94 37.5t-69 66.5t-36.5 99z "></glyph><glyph glyph-name="scircumflex" unicode="ŝ" d="M129 572q-6 0 -10.5 3.5t-4.5 10.5q0 8 7 18l58 83q11 16 19.5 21t29.5 5h30q21 0 29.5 -4.5t19.5 -20.5l59 -84q7 -11 7 -19q0 -13 -14 -13h-19q-21 0 -29 4t-20 22l-48 69l-48 -69q-6 -9 -10.5 -14.5t-8.5 -8t-9 -3t-13 -0.5h-25zM243 -12q-39 0 -70.5 8t-62.5 26 q-16 9 -29.5 23t-23 29t-15 30t-5.5 28t5 20t20 9l27 3q16 2 23 -6t10 -21q6 -24 19 -40.5t31 -26t39.5 -14t43.5 -4.5q14 0 32.5 3t35 12t28 25t11.5 42q0 30 -23 44.5t-58 23t-75 15.5t-75 21t-58 40t-23 73q0 36 16 62.5t42 43.5t58 25t64 8q23 0 54.5 -5.5t61.5 -20.5 q13 -6 28 -17t28 -24.5t21.5 -29.5t8.5 -33q0 -12 -4.5 -20t-21.5 -10l-24 -3q-14 -2 -22 6.5t-12 21.5q-11 36 -43.5 53.5t-70.5 17.5q-17 0 -35 -3t-33 -11t-24.5 -21.5t-9.5 -35.5q0 -27 23.5 -40.5t59 -22.5t76.5 -17t76.5 -23t59 -42.5t23.5 -74.5q0 -38 -17.5 -65.5 t-47 -45.5t-66.5 -27t-76 -9z"></glyph><glyph glyph-name="Scedilla" unicode="Ş" d="M43 197q-2 13 5 24t26 13l32 3q20 2 28 -6.5t10 -21.5q11 -81 66 -116t140 -35q34 0 65.5 8t56 25t39.5 44t15 65q0 37 -19.5 59.5t-51 37t-72.5 23.5t-83 18t-83 21t-72.5 33t-51 53t-19.5 82q0 52 22.5 90t59 63t82 37.5t91.5 12.5q106 0 181.5 -46t97.5 -138 q4 -14 -3.5 -26.5t-22.5 -13.5l-32 -1q-28 -1 -36 35q-11 51 -59.5 82.5t-119.5 31.5q-25 0 -53 -5t-51.5 -17t-39 -33t-15.5 -52q0 -35 19.5 -56.5t51 -35t72.5 -22t83 -18t83 -23t72.5 -37t51 -60t19.5 -92.5q0 -57 -24 -98.5t-62.5 -68.5t-87.5 -40.5t-100 -13.5h-9 l-32 -44q15 4 32 4q34 0 58.5 -19t24.5 -55q0 -26 -12 -44t-29.5 -29t-37.5 -15.5t-35 -4.5q-24 0 -41.5 4t-39.5 11q-14 3 -14 16q0 3 2 7l5 11q4 8 12 8q3 0 5.5 -0.5t6.5 -1.5q11 -4 22 -6t24 -2q23 0 39.5 9.5t16.5 30.5t-13.5 30.5t-34.5 9.5q-17 0 -23.5 -3t-11.5 -3 t-11 6l-3 3q-4 4 -4 8t4 10l45 62q-50 4 -93 18.5t-77 40.5t-56.5 64t-30.5 89z"></glyph><glyph glyph-name="scedilla" unicode="ş" d="M450 135q0 -36 -16.5 -63t-43.5 -45t-62.5 -27.5t-72.5 -10.5l-37 -51q15 4 32 4q34 0 58.5 -19t24.5 -55q0 -26 -12 -44t-29.5 -29t-37.5 -15.5t-35 -4.5q-24 0 -41.5 4t-39.5 11q-14 3 -14 16q0 3 2 7l5 11q4 8 12 8q3 0 5.5 -0.5t6.5 -1.5q11 -4 22 -6t24 -2 q23 0 39.5 9.5t16.5 30.5t-13.5 30.5t-34.5 9.5q-17 0 -23.5 -3t-11.5 -3t-11 6l-3 3q-4 4 -4 8t4 10l49 67q-52 4 -99 32q-16 9 -29.5 23t-23 29t-15 30t-5.5 28t5 20t20 9l27 3q16 2 23 -6t10 -21q6 -24 19 -40.5t31 -26t39.5 -14t43.5 -4.5q14 0 32.5 3t35 12t28 25 t11.5 42q0 30 -23 44.5t-58 23t-75 15.5t-75 21t-58 40t-23 73q0 36 16 62.5t42 43.5t58 25t64 8q23 0 54.5 -5.5t61.5 -20.5q13 -6 28 -17t28 -24.5t21.5 -29.5t8.5 -33q0 -12 -4.5 -20t-21.5 -10l-24 -3q-14 -2 -22 6.5t-12 21.5q-11 36 -43.5 53.5t-70.5 17.5 q-17 0 -35 -3t-33 -11t-24.5 -21.5t-9.5 -35.5q0 -27 23.5 -40.5t59 -22.5t76.5 -17t76.5 -23t59 -42.5t23.5 -74.5z"></glyph><glyph glyph-name="Scaron" unicode="Š" d="M43 197q-2 13 5 24t26 13l32 3q20 2 28 -6.5t10 -21.5q11 -81 66 -116t140 -35q34 0 65.5 8t56 25t39.5 44t15 65q0 37 -19.5 59.5t-51 37t-72.5 23.5t-83 18t-83 21t-72.5 33t-51 53t-19.5 82q0 52 22.5 90t59 63t82 37.5t91.5 12.5q106 0 181.5 -46t97.5 -138 q4 -14 -3.5 -26.5t-22.5 -13.5l-32 -1q-28 -1 -36 35q-11 51 -59.5 82.5t-119.5 31.5q-25 0 -53 -5t-51.5 -17t-39 -33t-15.5 -52q0 -35 19.5 -56.5t51 -35t72.5 -22t83 -18t83 -23t72.5 -37t51 -60t19.5 -92.5q0 -57 -24 -98.5t-62.5 -68.5t-87.5 -40.5t-100 -13.5 q-59 0 -111.5 12t-94 37.5t-69 66.5t-36.5 99zM318 761q-21 0 -29.5 5t-19.5 21l-58 83q-7 10 -7 18q0 7 4.5 10.5t10.5 3.5h25q8 0 13 -0.5t9 -3t8.5 -8t10.5 -14.5l48 -69l48 69q12 18 20 22t29 4h19q14 0 14 -13q0 -8 -7 -19l-59 -84q-11 -16 -19.5 -20.5t-29.5 -4.5h-30 z"></glyph><glyph glyph-name="scaron" unicode="š" d="M243 -12q-39 0 -70.5 8t-62.5 26q-16 9 -29.5 23t-23 29t-15 30t-5.5 28t5 20t20 9l27 3q16 2 23 -6t10 -21q6 -24 19 -40.5t31 -26t39.5 -14t43.5 -4.5q14 0 32.5 3t35 12t28 25t11.5 42q0 30 -23 44.5t-58 23t-75 15.5t-75 21t-58 40t-23 73q0 36 16 62.5t42 43.5 t58 25t64 8q23 0 54.5 -5.5t61.5 -20.5q13 -6 28 -17t28 -24.5t21.5 -29.5t8.5 -33q0 -12 -4.5 -20t-21.5 -10l-24 -3q-14 -2 -22 6.5t-12 21.5q-11 36 -43.5 53.5t-70.5 17.5q-17 0 -35 -3t-33 -11t-24.5 -21.5t-9.5 -35.5q0 -27 23.5 -40.5t59 -22.5t76.5 -17t76.5 -23 t59 -42.5t23.5 -74.5q0 -38 -17.5 -65.5t-47 -45.5t-66.5 -27t-76 -9zM225 572q-21 0 -29.5 5t-19.5 21l-58 83q-7 10 -7 18q0 7 4.5 10.5t10.5 3.5h25q8 0 13 -0.5t9 -3t8.5 -8t10.5 -14.5l48 -69l48 69q12 18 20 22t29 4h19q14 0 14 -13q0 -8 -7 -19l-59 -84 q-11 -16 -19.5 -20.5t-29.5 -4.5h-30z"></glyph><glyph glyph-name="Tcommaaccent" unicode="Ţ" d="M231 630h-183q-13 0 -22 9t-9 22v20q0 13 9 22t22 9h460q13 0 22 -9t9 -22v-20q0 -13 -9 -22t-22 -9h-183v-599q0 -13 -9 -22t-22 -9h-32q-13 0 -22 9t-9 22v599zM222 -93q4 14 13 22t23 8h26q23 0 23 -21q0 -6 -3 -13l-44 -97q-6 -13 -13.5 -21t-21.5 -8h-19 q-9 0 -13.5 6t-4.5 14q0 4 2 10z"></glyph><glyph glyph-name="tcommaaccent" unicode="ţ" d="M86 408h-48q-13 0 -22 9t-9 22v8q0 13 9 22t22 9h48v118q0 13 9 22t22 9h20q13 0 22 -9t9 -22v-118h58q13 0 22 -9t9 -22v-8q0 -13 -9 -22t-22 -9h-58v-294q0 -14 1 -26t6 -20q7 -10 24 -10q8 0 16 1.5t18 1.5q19 0 19 -28v-12q0 -22 -24 -27.5t-57 -5.5q-32 0 -49 7 t-25 19.5t-9.5 30t-1.5 37.5v326zM108 -94q4 14 13 22t23 8h26q23 0 23 -21q0 -6 -3 -13l-44 -97q-6 -13 -13.5 -21t-21.5 -8h-19q-9 0 -13.5 6t-4.5 14q0 4 2 10z"></glyph><glyph glyph-name="Tcaron" unicode="Ť" d="M231 630h-183q-13 0 -22 9t-9 22v20q0 13 9 22t22 9h460q13 0 22 -9t9 -22v-20q0 -13 -9 -22t-22 -9h-183v-599q0 -13 -9 -22t-22 -9h-32q-13 0 -22 9t-9 22v599zM262 761q-21 0 -29.5 5t-19.5 21l-58 83q-7 10 -7 18q0 7 4.5 10.5t10.5 3.5h25q8 0 13 -0.5t9 -3t8.5 -8 t10.5 -14.5l48 -69l48 69q12 18 20 22t29 4h19q14 0 14 -13q0 -8 -7 -19l-59 -84q-11 -16 -19.5 -20.5t-29.5 -4.5h-30z"></glyph><glyph glyph-name="tcaron" unicode="ť" d="M86 408h-48q-13 0 -22 9t-9 22v8q0 13 9 22t22 9h48v118q0 13 9 22t22 9h20q13 0 22 -9t9 -22v-118h58q13 0 22 -9t9 -22v-8q0 -13 -9 -22t-22 -9h-58v-294q0 -14 1 -26t6 -20q7 -10 24 -10q8 0 16 1.5t18 1.5q19 0 19 -28v-12q0 -22 -24 -27.5t-57 -5.5q-32 0 -49 7 t-25 19.5t-9.5 30t-1.5 37.5v326zM237 682q4 14 13 22t23 8h26q23 0 23 -21q0 -6 -3 -13l-44 -97q-6 -13 -13.5 -21t-21.5 -8h-19q-9 0 -13.5 6t-4.5 14q0 4 2 10z"></glyph><glyph glyph-name="Tbar" unicode="Ŧ" d="M231 419h-114q-13 0 -22 9t-9 22v12q0 13 9 22t22 9h114v138h-183q-13 0 -22 9t-9 22v19q0 13 9 22t22 9h460q13 0 22 -9t9 -22v-19q0 -13 -9 -22t-22 -9h-183v-138h116q13 0 22 -9t9 -22v-12q0 -13 -9 -22t-22 -9h-116v-388q0 -13 -9 -22t-22 -9h-32q-13 0 -22 9t-9 22 v388z"></glyph><glyph glyph-name="tbar" unicode="ŧ" d="M86 262h-45q-11 0 -19.5 8.5t-8.5 19.5v2q0 11 8.5 19.5t19.5 8.5h45v88h-48q-13 0 -22 9t-9 22v8q0 13 9 22t22 9h48v118q0 13 9 22t22 9h20q13 0 22 -9t9 -22v-118h58q13 0 22 -9t9 -22v-8q0 -13 -9 -22t-22 -9h-58v-88h54q11 0 19.5 -8.5t8.5 -19.5v-2 q0 -11 -8.5 -19.5t-19.5 -8.5h-54v-148q0 -14 1 -26t6 -20q7 -10 24 -10q8 0 16 1.5t18 1.5q19 0 19 -28v-12q0 -22 -24 -27.5t-57 -5.5q-32 0 -49 7t-25 19.5t-9.5 30t-1.5 37.5v180z"></glyph><glyph glyph-name="Utilde" unicode="Ũ" d="M71 681q0 13 9 22t22 9h32q13 0 22 -9t9 -22v-431q0 -94 41.5 -140t135.5 -46t135.5 46t41.5 140v431q0 13 9 22t22 9h32q13 0 22 -9t9 -22v-447q0 -61 -19 -108t-54 -79t-85 -48.5t-113 -16.5t-113 16.5t-85 48.5t-54 79t-19 108v447zM189 770q-8 0 -11 6t-1 15 q8 37 33.5 62t67.5 25q20 0 39 -5.5t36 -12.5q17 -8 32.5 -13.5t26.5 -5.5q17 0 29.5 5.5t19.5 17.5q5 10 7.5 16t14.5 6h16q8 0 10 -7t0 -16q-9 -35 -33.5 -60.5t-65.5 -25.5q-15 0 -34.5 6t-39.5 14q-20 7 -38 12t-32 5q-11 0 -21 -6.5t-16 -15.5q-7 -10 -11.5 -16 t-16.5 -6h-12z"></glyph><glyph glyph-name="utilde" unicode="ũ" d="M63 447q0 13 9 22t22 9h20q13 0 22 -9t9 -22v-284q0 -51 28 -75t73 -24q57 0 92.5 34t35.5 92v257q0 13 9 22t22 9h20q13 0 22 -9t9 -22v-416q0 -13 -9 -22t-22 -9h-20q-13 0 -22 9t-9 22v33h-2q-24 -36 -58 -56t-82 -20q-36 0 -67 8.5t-53.5 29t-35.5 54t-13 83.5v284z M110 581q-8 0 -11 6t-1 15q8 37 33.5 62t67.5 25q20 0 39 -5.5t36 -12.5q17 -8 32.5 -13.5t26.5 -5.5q17 0 29.5 5.5t19.5 17.5q5 10 7.5 16t14.5 6h16q8 0 10 -7t0 -16q-9 -35 -33.5 -60.5t-65.5 -25.5q-15 0 -34.5 6t-39.5 14q-20 7 -38 12t-32 5q-11 0 -21 -6.5 t-16 -15.5q-7 -10 -11.5 -16t-16.5 -6h-12z"></glyph><glyph glyph-name="Umacron" unicode="Ū" d="M71 681q0 13 9 22t22 9h32q13 0 22 -9t9 -22v-431q0 -94 41.5 -140t135.5 -46t135.5 46t41.5 140v431q0 13 9 22t22 9h32q13 0 22 -9t9 -22v-447q0 -61 -19 -108t-54 -79t-85 -48.5t-113 -16.5t-113 16.5t-85 48.5t-54 79t-19 108v447zM235 801q-11 0 -19.5 8.5 t-8.5 19.5v2q0 11 8.5 19.5t19.5 8.5h218q11 0 19.5 -8.5t8.5 -19.5v-2q0 -11 -8.5 -19.5t-19.5 -8.5h-218z"></glyph><glyph glyph-name="umacron" unicode="ū" d="M63 447q0 13 9 22t22 9h20q13 0 22 -9t9 -22v-284q0 -51 28 -75t73 -24q57 0 92.5 34t35.5 92v257q0 13 9 22t22 9h20q13 0 22 -9t9 -22v-416q0 -13 -9 -22t-22 -9h-20q-13 0 -22 9t-9 22v33h-2q-24 -36 -58 -56t-82 -20q-36 0 -67 8.5t-53.5 29t-35.5 54t-13 83.5v284z M150 622q-11 0 -19.5 6t-8.5 17v10q0 11 8.5 18t19.5 7h218q11 0 19.5 -6t8.5 -17v-10q0 -11 -8.5 -18t-19.5 -7h-218z"></glyph><glyph glyph-name="Ubreve" unicode="Ŭ" d="M71 681q0 13 9 22t22 9h32q13 0 22 -9t9 -22v-431q0 -94 41.5 -140t135.5 -46t135.5 46t41.5 140v431q0 13 9 22t22 9h32q13 0 22 -9t9 -22v-447q0 -61 -19 -108t-54 -79t-85 -48.5t-113 -16.5t-113 16.5t-85 48.5t-54 79t-19 108v447zM346 767q-63 0 -101.5 25.5 t-52.5 84.5q-2 10 1 17.5t13 7.5h18q10 0 14 -6.5t9 -17.5q11 -29 37.5 -41t58.5 -12q36 0 59 12t36 41q5 15 9 19.5t15 4.5h16q9 0 13 -7.5t1 -17.5q-13 -53 -50 -81.5t-96 -28.5z"></glyph><glyph glyph-name="ubreve" unicode="ŭ" d="M63 447q0 13 9 22t22 9h20q13 0 22 -9t9 -22v-284q0 -51 28 -75t73 -24q57 0 92.5 34t35.5 92v257q0 13 9 22t22 9h20q13 0 22 -9t9 -22v-416q0 -13 -9 -22t-22 -9h-20q-13 0 -22 9t-9 22v33h-2q-24 -36 -58 -56t-82 -20q-36 0 -67 8.5t-53.5 29t-35.5 54t-13 83.5v284z M265 578q-63 0 -101.5 25.5t-52.5 84.5q-2 10 1 17.5t13 7.5h18q10 0 14 -6.5t9 -17.5q11 -29 37.5 -41t58.5 -12q36 0 59 12t36 41q5 15 9 19.5t15 4.5h16q9 0 13 -7.5t1 -17.5q-13 -53 -50 -81.5t-96 -28.5z"></glyph><glyph glyph-name="Uring" unicode="Ů" d="M71 681q0 13 9 22t22 9h32q13 0 22 -9t9 -22v-431q0 -94 41.5 -140t135.5 -46t135.5 46t41.5 140v431q0 13 9 22t22 9h32q13 0 22 -9t9 -22v-447q0 -61 -19 -108t-54 -79t-85 -48.5t-113 -16.5t-113 16.5t-85 48.5t-54 79t-19 108v447zM344 734q-21 0 -39.5 8t-32.5 22 t-22 32.5t-8 39.5t8 39.5t22 32.5t32.5 22t39.5 8t39.5 -8t32.5 -22t22 -32.5t8 -39.5t-8 -39.5t-22 -32.5t-32.5 -22t-39.5 -8zM344 774q25 0 43.5 19t18.5 43t-18.5 43t-43.5 19t-43.5 -19t-18.5 -43t18.5 -43t43.5 -19z"></glyph><glyph glyph-name="uring" unicode="ů" d="M63 447q0 13 9 22t22 9h20q13 0 22 -9t9 -22v-284q0 -51 28 -75t73 -24q57 0 92.5 34t35.5 92v257q0 13 9 22t22 9h20q13 0 22 -9t9 -22v-416q0 -13 -9 -22t-22 -9h-20q-13 0 -22 9t-9 22v33h-2q-24 -36 -58 -56t-82 -20q-36 0 -67 8.5t-53.5 29t-35.5 54t-13 83.5v284z M262 555q-21 0 -39.5 8t-32.5 22t-22 32.5t-8 39.5t8 39.5t22 32.5t32.5 22t39.5 8t39.5 -8t32.5 -22t22 -32.5t8 -39.5t-8 -39.5t-22 -32.5t-32.5 -22t-39.5 -8zM262 595q25 0 43.5 19t18.5 43t-18.5 43t-43.5 19t-43.5 -19t-18.5 -43t18.5 -43t43.5 -19z"></glyph><glyph glyph-name="Uhungarumlaut" unicode="Ű" d="M71 681q0 13 9 22t22 9h32q13 0 22 -9t9 -22v-431q0 -94 41.5 -140t135.5 -46t135.5 46t41.5 140v431q0 13 9 22t22 9h32q13 0 22 -9t9 -22v-447q0 -61 -19 -108t-54 -79t-85 -48.5t-113 -16.5t-113 16.5t-85 48.5t-54 79t-19 108v447zM424 761q-8 0 -13.5 5t-5.5 13 q0 7 6 18l49 78q11 18 18.5 22.5t21.5 4.5h46q5 0 10 -4.5t5 -12.5q0 -7 -8 -17l-77 -84q-14 -16 -21 -19.5t-23 -3.5h-8zM243 761q-8 0 -13.5 5t-5.5 13q0 7 6 18l49 78q11 18 18.5 22.5t21.5 4.5h46q5 0 10 -4.5t5 -12.5q0 -7 -8 -17l-77 -84q-14 -16 -21 -19.5t-23 -3.5 h-8z"></glyph><glyph glyph-name="uhungarumlaut" unicode="ű" d="M63 447q0 13 9 22t22 9h20q13 0 22 -9t9 -22v-284q0 -51 28 -75t73 -24q57 0 92.5 34t35.5 92v257q0 13 9 22t22 9h20q13 0 22 -9t9 -22v-416q0 -13 -9 -22t-22 -9h-20q-13 0 -22 9t-9 22v33h-2q-24 -36 -58 -56t-82 -20q-36 0 -67 8.5t-53.5 29t-35.5 54t-13 83.5v284z M342 572q-8 0 -13.5 5t-5.5 13q0 7 6 18l49 78q11 18 18.5 22.5t21.5 4.5h46q5 0 10 -4.5t5 -12.5q0 -7 -8 -17l-77 -84q-14 -16 -21 -19.5t-23 -3.5h-8zM161 572q-8 0 -13.5 5t-5.5 13q0 7 6 18l49 78q11 18 18.5 22.5t21.5 4.5h46q5 0 10 -4.5t5 -12.5q0 -7 -8 -17 l-77 -84q-14 -16 -21 -19.5t-23 -3.5h-8z"></glyph><glyph glyph-name="Uogonek" unicode="Ų" d="M71 681q0 13 9 22t22 9h32q13 0 22 -9t9 -22v-431q0 -94 41.5 -140t135.5 -46t135.5 46t41.5 140v431q0 13 9 22t22 9h32q13 0 22 -9t9 -22v-447q0 -108 -56.5 -171t-156.5 -77q-11 -12 -24 -26.5t-24 -30.5t-18.5 -31.5t-7.5 -28.5q0 -23 11.5 -35t28.5 -12q7 0 12 1 t10 1q7 0 12.5 -3.5t5.5 -10.5v-10q0 -10 -6 -14.5t-15 -6.5q-15 -3 -30 -3q-42 0 -73.5 25.5t-31.5 71.5q0 28 20.5 55.5t54.5 53.5q-118 5 -186 69t-68 183v447z"></glyph><glyph glyph-name="uogonek" unicode="ų" d="M283 -127q0 19 10 37.5t25 35.5t33.5 32t35.5 27q-13 10 -13 26v33h-2q-24 -36 -58 -56t-82 -20q-36 0 -67 8.5t-53.5 29t-35.5 54t-13 83.5v284q0 13 9 22t22 9h20q13 0 22 -9t9 -22v-284q0 -51 28 -75t73 -24q57 0 92.5 34t35.5 92v257q0 13 9 22t22 9h20q13 0 22 -9 t9 -22v-416q0 -14 -4.5 -23t-13.5 -18.5t-22.5 -23.5t-30.5 -38q-11 -15 -18.5 -28.5t-7.5 -30.5q0 -23 11.5 -35t28.5 -12q7 0 12 1t10 1q7 0 12.5 -3.5t5.5 -10.5v-10q0 -10 -6 -14.5t-15 -6.5q-15 -3 -30 -3q-42 0 -73.5 25.5t-31.5 71.5z"></glyph><glyph glyph-name="Wcircumflex" unicode="Ŵ" d="M786 30q-5 -14 -14 -22t-23 -8h-36q-14 0 -24 8t-14 22l-175 552h-2l-174 -552q-5 -14 -14.5 -22t-23.5 -8h-36q-14 0 -23 8t-14 22l-199 646q-2 5 -3 8.5t-1 7.5q0 11 8 15.5t29 4.5h30q27 0 36 -30l157 -526h2l169 526q5 14 15 22t24 8h42q14 0 22.5 -8t13.5 -22 l169 -526h2l157 526q10 30 37 30h24q41 0 41 -20q0 -4 -1 -9t-3 -10zM384 761q-6 0 -10.5 3.5t-4.5 10.5q0 8 7 18l58 83q11 16 19.5 21t29.5 5h30q21 0 29.5 -4.5t19.5 -20.5l59 -84q7 -11 7 -19q0 -13 -14 -13h-19q-21 0 -29 4t-20 22l-48 69l-48 -69q-6 -9 -10.5 -14.5 t-8.5 -8t-9 -3t-13 -0.5h-25z"></glyph><glyph glyph-name="wcircumflex" unicode="ŵ" d="M26 441q-8 23 -0.5 30t20.5 7h32q18 0 23.5 -8t10.5 -22l109 -321h2l104 321q5 17 13.5 23.5t22.5 6.5h18q14 0 22.5 -6.5t13.5 -23.5l102 -321h2l113 321q5 13 11 21.5t24 8.5h21q37 0 24 -37l-149 -412q-5 -13 -14 -21t-23 -8h-19q-14 0 -22.5 8t-13.5 22l-103 321h-2 l-106 -321q-5 -14 -13.5 -22t-22.5 -8h-21q-14 0 -22.5 8t-13.5 22zM257 572q-6 0 -10.5 3.5t-4.5 10.5q0 8 7 18l58 83q11 16 19.5 21t29.5 5h30q21 0 29.5 -4.5t19.5 -20.5l59 -84q7 -11 7 -19q0 -13 -14 -13h-19q-21 0 -29 4t-20 22l-48 69l-48 -69q-6 -9 -10.5 -14.5 t-8.5 -8t-9 -3t-13 -0.5h-25z"></glyph><glyph glyph-name="Ycircumflex" unicode="Ŷ" d="M267 328l-232 348q-11 17 -3.5 26.5t23.5 9.5h38q20 0 28.5 -5t19.5 -21l173 -269l173 269q10 16 18.5 21t29.5 5h42q16 0 21.5 -10t-6.5 -28l-231 -346v-297q0 -13 -9 -22t-22 -9h-32q-13 0 -22 9t-9 22v297zM201 761q-6 0 -10.5 3.5t-4.5 10.5q0 8 7 18l58 83 q11 16 19.5 21t29.5 5h30q21 0 29.5 -4.5t19.5 -20.5l59 -84q7 -11 7 -19q0 -13 -14 -13h-19q-21 0 -29 4t-20 22l-48 69l-48 -69q-6 -9 -10.5 -14.5t-8.5 -8t-9 -3t-13 -0.5h-25z"></glyph><glyph glyph-name="ycircumflex" unicode="ŷ" d="M33 -157q8 0 14.5 -1.5t18.5 -1.5q26 0 44.5 13t32.5 54l33 92l-149 442q-7 21 0 29t24 8h25q20 0 25.5 -8t10.5 -22l108 -331h2l115 331q5 14 10.5 22t24.5 8h22q37 0 24 -36l-194 -547q-9 -26 -20 -50t-27 -42t-39 -28.5t-56 -10.5q-14 0 -34 4t-29 12q-6 6 -6 17v23 q0 23 20 23zM108 572q-6 0 -10.5 3.5t-4.5 10.5q0 8 7 18l58 83q11 16 19.5 21t29.5 5h30q21 0 29.5 -4.5t19.5 -20.5l59 -84q7 -11 7 -19q0 -13 -14 -13h-19q-21 0 -29 4t-20 22l-48 69l-48 -69q-6 -9 -10.5 -14.5t-8.5 -8t-9 -3t-13 -0.5h-25z"></glyph><glyph glyph-name="Ydieresis" unicode="Ÿ" d="M267 328l-232 348q-11 17 -3.5 26.5t23.5 9.5h38q20 0 28.5 -5t19.5 -21l173 -269l173 269q10 16 18.5 21t29.5 5h42q16 0 21.5 -10t-6.5 -28l-231 -346v-297q0 -13 -9 -22t-22 -9h-32q-13 0 -22 9t-9 22v297zM381 775q-13 0 -22 9t-9 22v38q0 13 9 22t22 9h26 q13 0 22 -9t9 -22v-38q0 -13 -9 -22t-22 -9h-26zM221 775q-13 0 -22 9t-9 22v38q0 13 9 22t22 9h26q13 0 22 -9t9 -22v-38q0 -13 -9 -22t-22 -9h-26z"></glyph><glyph glyph-name="Zacute" unicode="Ź" d="M22 63q0 23 11.5 38.5t28.5 36.5l405 492h-379q-13 0 -22 9t-9 22v20q0 13 9 22t22 9h451q17 0 24 -9t7 -27v-21q0 -23 -9 -37.5t-20 -28.5l-418 -507h435q13 0 22 -9t9 -22v-20q0 -13 -9 -22t-22 -9h-505q-31 0 -31 41v22zM299 761q-8 0 -13.5 5t-5.5 13q0 7 6 18l49 78 q11 18 18.5 22.5t21.5 4.5h46q5 0 10 -4.5t5 -12.5q0 -7 -8 -17l-77 -84q-14 -16 -21 -19.5t-23 -3.5h-8z"></glyph><glyph glyph-name="zacute" unicode="ź" d="M23 51q0 14 5.5 23t14.5 20l253 314h-217q-13 0 -22 9t-9 22v8q0 13 9 22t22 9h287q13 0 22 -9t9 -22v-18q0 -14 -5.5 -23t-14.5 -20l-257 -316h252q13 0 22 -9t9 -22v-8q0 -13 -9 -22t-22 -9h-318q-13 0 -22 9t-9 22v20zM205 572q-8 0 -13.5 5t-5.5 13q0 7 6 18l49 78 q11 18 18.5 22.5t21.5 4.5h46q5 0 10 -4.5t5 -12.5q0 -7 -8 -17l-77 -84q-14 -16 -21 -19.5t-23 -3.5h-8z"></glyph><glyph glyph-name="Zdotaccent" unicode="Ż" d="M22 63q0 23 11.5 38.5t28.5 36.5l405 492h-379q-13 0 -22 9t-9 22v20q0 13 9 22t22 9h451q17 0 24 -9t7 -27v-21q0 -23 -9 -37.5t-20 -28.5l-418 -507h435q13 0 22 -9t9 -22v-20q0 -13 -9 -22t-22 -9h-505q-31 0 -31 41v22zM303 775q-13 0 -22 9t-9 22v38q0 13 9 22t22 9 h26q13 0 22 -9t9 -22v-38q0 -13 -9 -22t-22 -9h-26z"></glyph><glyph glyph-name="zdotaccent" unicode="ż" d="M23 51q0 14 5.5 23t14.5 20l253 314h-217q-13 0 -22 9t-9 22v8q0 13 9 22t22 9h287q13 0 22 -9t9 -22v-18q0 -14 -5.5 -23t-14.5 -20l-257 -316h252q13 0 22 -9t9 -22v-8q0 -13 -9 -22t-22 -9h-318q-13 0 -22 9t-9 22v20zM211 596q-13 0 -22 9t-9 22v38q0 13 9 22t22 9 h26q13 0 22 -9t9 -22v-38q0 -13 -9 -22t-22 -9h-26z"></glyph><glyph glyph-name="Zcaron" unicode="Ž" d="M22 63q0 23 11.5 38.5t28.5 36.5l405 492h-379q-13 0 -22 9t-9 22v20q0 13 9 22t22 9h451q17 0 24 -9t7 -27v-21q0 -23 -9 -37.5t-20 -28.5l-418 -507h435q13 0 22 -9t9 -22v-20q0 -13 -9 -22t-22 -9h-505q-31 0 -31 41v22zM290 761q-21 0 -29.5 5t-19.5 21l-58 83 q-7 10 -7 18q0 7 4.5 10.5t10.5 3.5h25q8 0 13 -0.5t9 -3t8.5 -8t10.5 -14.5l48 -69l48 69q12 18 20 22t29 4h19q14 0 14 -13q0 -8 -7 -19l-59 -84q-11 -16 -19.5 -20.5t-29.5 -4.5h-30z"></glyph><glyph glyph-name="zcaron" unicode="ž" d="M23 51q0 14 5.5 23t14.5 20l253 314h-217q-13 0 -22 9t-9 22v8q0 13 9 22t22 9h287q13 0 22 -9t9 -22v-18q0 -14 -5.5 -23t-14.5 -20l-257 -316h252q13 0 22 -9t9 -22v-8q0 -13 -9 -22t-22 -9h-318q-13 0 -22 9t-9 22v20zM197 572q-21 0 -29.5 5t-19.5 21l-58 83 q-7 10 -7 18q0 7 4.5 10.5t10.5 3.5h25q8 0 13 -0.5t9 -3t8.5 -8t10.5 -14.5l48 -69l48 69q12 18 20 22t29 4h19q14 0 14 -13q0 -8 -7 -19l-59 -84q-11 -16 -19.5 -20.5t-29.5 -4.5h-30z"></glyph><glyph glyph-name="florin" unicode="ƒ" d="M91 -146q7 -1 14 -1.5t15 -0.5q37 0 51 23.5t20 81.5l36 312h-80q-12 0 -21 6.5t-8 19.5l1 14q2 13 11 18.5t22 5.5h81l24 210q3 30 10.5 56t21.5 45.5t36.5 30.5t56.5 11q27 0 54 -6q13 -2 20.5 -10.5t5.5 -21.5l-3 -19q-2 -13 -12 -18t-22 -3q-8 2 -15.5 2h-17.5 q-13 0 -22.5 -3.5t-16.5 -14t-12 -29t-8 -48.5l-20 -182h81q13 0 21 -7t8 -20l-1 -16q0 -13 -9.5 -17t-22.5 -4h-85l-36 -314q-6 -51 -15.5 -85t-25 -55t-38.5 -30t-56 -9q-11 0 -22.5 1t-23.5 3q-13 2 -20.5 12.5t-6.5 24.5l1 16q2 11 10 17t19 4z"></glyph><glyph glyph-name="Scommaaccent" unicode="Ș" d="M286 -93q4 14 13 22t23 8h26q23 0 23 -21q0 -6 -3 -13l-44 -97q-6 -13 -13.5 -21t-21.5 -8h-19q-9 0 -13.5 6t-4.5 14q0 4 2 10zM43 197q-2 13 5 24t26 13l32 3q20 2 28 -6.5t10 -21.5q11 -81 66 -116t140 -35q34 0 65.5 8t56 25t39.5 44t15 65q0 37 -19.5 59.5t-51 37 t-72.5 23.5t-83 18t-83 21t-72.5 33t-51 53t-19.5 82q0 52 22.5 90t59 63t82 37.5t91.5 12.5q106 0 181.5 -46t97.5 -138q4 -14 -3.5 -26.5t-22.5 -13.5l-32 -1q-28 -1 -36 35q-11 51 -59.5 82.5t-119.5 31.5q-25 0 -53 -5t-51.5 -17t-39 -33t-15.5 -52q0 -35 19.5 -56.5 t51 -35t72.5 -22t83 -18t83 -23t72.5 -37t51 -60t19.5 -92.5q0 -57 -24 -98.5t-62.5 -68.5t-87.5 -40.5t-100 -13.5q-59 0 -111.5 12t-94 37.5t-69 66.5t-36.5 99z"></glyph><glyph glyph-name="scommaaccent" unicode="ș" d="M188 -94q4 14 13 22t23 8h26q23 0 23 -21q0 -6 -3 -13l-44 -97q-6 -13 -13.5 -21t-21.5 -8h-19q-9 0 -13.5 6t-4.5 14q0 4 2 10zM243 -12q-39 0 -70.5 8t-62.5 26q-16 9 -29.5 23t-23 29t-15 30t-5.5 28t5 20t20 9l27 3q16 2 23 -6t10 -21q6 -24 19 -40.5t31 -26 t39.5 -14t43.5 -4.5q14 0 32.5 3t35 12t28 25t11.5 42q0 30 -23 44.5t-58 23t-75 15.5t-75 21t-58 40t-23 73q0 36 16 62.5t42 43.5t58 25t64 8q23 0 54.5 -5.5t61.5 -20.5q13 -6 28 -17t28 -24.5t21.5 -29.5t8.5 -33q0 -12 -4.5 -20t-21.5 -10l-24 -3q-14 -2 -22 6.5 t-12 21.5q-11 36 -43.5 53.5t-70.5 17.5q-17 0 -35 -3t-33 -11t-24.5 -21.5t-9.5 -35.5q0 -27 23.5 -40.5t59 -22.5t76.5 -17t76.5 -23t59 -42.5t23.5 -74.5q0 -38 -17.5 -65.5t-47 -45.5t-66.5 -27t-76 -9z"></glyph><glyph glyph-name="uni021A" unicode="Ț" d="M231 630h-183q-13 0 -22 9t-9 22v20q0 13 9 22t22 9h460q13 0 22 -9t9 -22v-20q0 -13 -9 -22t-22 -9h-183v-599q0 -13 -9 -22t-22 -9h-32q-13 0 -22 9t-9 22v599zM222 -93q4 14 13 22t23 8h26q23 0 23 -21q0 -6 -3 -13l-44 -97q-6 -13 -13.5 -21t-21.5 -8h-19 q-9 0 -13.5 6t-4.5 14q0 4 2 10z"></glyph><glyph glyph-name="uni021B" unicode="ț" d="M86 408h-48q-13 0 -22 9t-9 22v8q0 13 9 22t22 9h48v118q0 13 9 22t22 9h20q13 0 22 -9t9 -22v-118h58q13 0 22 -9t9 -22v-8q0 -13 -9 -22t-22 -9h-58v-294q0 -14 1 -26t6 -20q7 -10 24 -10q8 0 16 1.5t18 1.5q19 0 19 -28v-12q0 -22 -24 -27.5t-57 -5.5q-32 0 -49 7 t-25 19.5t-9.5 30t-1.5 37.5v326zM108 -94q4 14 13 22t23 8h26q23 0 23 -21q0 -6 -3 -13l-44 -97q-6 -13 -13.5 -21t-21.5 -8h-19q-9 0 -13.5 6t-4.5 14q0 4 2 10z"></glyph><glyph glyph-name="uni0237" unicode="ȷ" d="M61 447q0 13 9 22t22 9h20q13 0 22 -9t9 -22v-539q0 -32 -4 -58.5t-16.5 -45.5t-35 -29.5t-59.5 -10.5q-35 0 -44.5 7.5t-9.5 23.5v20q0 6 5 13.5t17 7.5q4 0 7.5 -0.5t11.5 -0.5q18 0 32 12t14 42v558z"></glyph><glyph glyph-name="circumflex" unicode="ˆ" d="M-13 572q-6 0 -10.5 3.5t-4.5 10.5q0 8 7 18l58 83q11 16 19.5 21t29.5 5h30q21 0 29.5 -4.5t19.5 -20.5l59 -84q7 -11 7 -19q0 -13 -14 -13h-19q-21 0 -29 4t-20 22l-48 69l-48 -69q-6 -9 -10.5 -14.5t-8.5 -8t-9 -3t-13 -0.5h-25z"></glyph><glyph glyph-name="caron" unicode="ˇ" d="M86 572q-21 0 -29.5 5t-19.5 21l-58 83q-7 10 -7 18q0 7 4.5 10.5t10.5 3.5h25q8 0 13 -0.5t9 -3t8.5 -8t10.5 -14.5l48 -69l48 69q12 18 20 22t29 4h19q14 0 14 -13q0 -8 -7 -19l-59 -84q-11 -16 -19.5 -20.5t-29.5 -4.5h-30v0z"></glyph><glyph glyph-name="uni02C9" unicode="ˉ" d="M-7 612q-11 0 -19.5 8.5t-8.5 19.5v2q0 11 8.5 19.5t19.5 8.5h218q11 0 19.5 -8.5t8.5 -19.5v-2q0 -11 -8.5 -19.5t-19.5 -8.5h-218v0z"></glyph><glyph glyph-name="breve" unicode="˘" d="M105 578q-63 0 -101.5 25.5t-52.5 84.5q-2 10 1 17.5t13 7.5h18q10 0 14 -6.5t9 -17.5q11 -29 37.5 -41t58.5 -12q36 0 59 12t36 41q5 15 9 19.5t15 4.5h16q9 0 13 -7.5t1 -17.5q-13 -53 -50 -81.5t-96 -28.5z"></glyph><glyph glyph-name="dotaccent" unicode="˙" d="M89 596q-13 0 -22 9t-9 22v38q0 13 9 22t22 9h26q13 0 22 -9t9 -22v-38q0 -13 -9 -22t-22 -9h-26v0z"></glyph><glyph glyph-name="ring" unicode="˚" d="M102 555q-21 0 -39.5 8t-32.5 22t-22 32.5t-8 39.5t8 39.5t22 32.5t32.5 22t39.5 8t39.5 -8t32.5 -22t22 -32.5t8 -39.5t-8 -39.5t-22 -32.5t-32.5 -22t-39.5 -8zM102 595q25 0 43.5 19t18.5 43t-18.5 43t-43.5 19t-43.5 -19t-18.5 -43t18.5 -43t43.5 -19z"></glyph><glyph glyph-name="ogonek" unicode="˛" d="M164 0q-11 -11 -26 -27t-28.5 -34t-23.5 -36t-10 -34q0 -23 11.5 -35t28.5 -12q7 0 12 1t10 1q7 0 12.5 -3.5t5.5 -10.5v-10q0 -10 -6 -14.5t-15 -6.5q-15 -3 -30 -3q-42 0 -73.5 25.5t-31.5 71.5q0 32 27.5 64.5t72.5 62.5h64z"></glyph><glyph glyph-name="tilde" unicode="˜" d="M-53 581q-8 0 -11 6t-1 15q8 37 33.5 62t67.5 25q20 0 39 -5.5t36 -12.5q17 -8 32.5 -13.5t26.5 -5.5q17 0 29.5 5.5t19.5 17.5q5 10 7.5 16t14.5 6h16q8 0 10 -7t0 -16q-9 -35 -33.5 -60.5t-65.5 -25.5q-15 0 -34.5 6t-39.5 14q-20 7 -38 12t-32 5q-11 0 -21 -6.5 t-16 -15.5q-7 -10 -11.5 -16t-16.5 -6h-12z"></glyph><glyph glyph-name="hungarumlaut" unicode="˝" d="M167 572q-8 0 -13.5 5t-5.5 13q0 7 6 18l49 78q11 18 18.5 22.5t21.5 4.5h46q5 0 10 -4.5t5 -12.5q0 -7 -8 -17l-77 -84q-14 -16 -21 -19.5t-23 -3.5h-8zM-14 572q-8 0 -13.5 5t-5.5 13q0 7 6 18l49 78q11 18 18.5 22.5t21.5 4.5h46q5 0 10 -4.5t5 -12.5q0 -7 -8 -17 l-77 -84q-14 -16 -21 -19.5t-23 -3.5h-8z"></glyph><glyph glyph-name="Delta" unicode="Δ" d="M273 683q5 13 16.5 21t25.5 8h38q14 0 26 -8t17 -21l261 -654q5 -11 -1.5 -20t-17.5 -9h-596q-11 0 -17.5 9t-2.5 20zM533 82l-200 513l-195 -513h395z"></glyph><glyph glyph-name="Omega" unicode="Ω" d="M46 51q0 13 9 22t22 9h157v57q-46 13 -81 39.5t-59 62.5t-36 79t-12 89q0 70 25.5 129t70 101.5t103.5 66.5t126 24t126.5 -23.5t103.5 -65.5t69.5 -101t25.5 -129q0 -48 -11.5 -91t-35 -78.5t-58.5 -62t-83 -40.5v-57h157q13 0 22 -9t9 -22v-20q0 -13 -9 -22t-22 -9 h-204q-13 0 -22 9t-9 22v121q0 20 7 28.5t23 13.5q66 23 100 79.5t34 130.5q0 53 -16.5 98.5t-46 79.5t-70.5 53t-90 19t-90 -19.5t-70.5 -53t-46 -79.5t-16.5 -99q0 -74 34 -130t100 -79q17 -6 23.5 -15t6.5 -27v-121q0 -13 -9 -22t-22 -9h-204q-13 0 -22 9t-9 22v20z"></glyph><glyph glyph-name="mu" unicode="μ" d="M145 -193q0 -13 -9 -22t-22 -9h-20q-13 0 -22 9t-9 22v640q0 13 9 22t22 9h20q13 0 22 -9t9 -22v-284q0 -17 5 -38t25 -38q10 -9 27 -16t44 -7q22 0 48 8q10 3 19 8t17 11q29 22 36.5 47.5t7.5 51.5v257q0 13 9 22t22 9h20q13 0 22 -9t9 -22v-343q0 -10 1 -18.5t4 -14.5 q5 -9 13.5 -11t16.5 -2t16 1.5t16 1.5t12.5 -5t4.5 -13v-22q0 -11 -8 -17.5t-19.5 -10t-25 -4.5t-24.5 -1q-18 0 -36.5 2.5t-32.5 18.5q-10 11 -15 26t-6 29q-14 -23 -39 -43q-44 -33 -102 -33q-13 0 -29 1t-32 8q-17 8 -26 15v-205z"></glyph><glyph glyph-name="pi" unicode="π" d="M123 408q-11 0 -26.5 -2.5t-33.5 -13.5q-14 -8 -24.5 -10t-16.5 9l-11 19q-7 11 -3 21.5t15 18.5q17 11 41 19.5t59 8.5h443q13 0 22 -9t9 -22v-8q0 -13 -9 -22t-22 -9h-53v-309q0 -25 7 -33t28 -8q13 0 18.5 1.5t15.5 1.5q15 0 15 -17v-21q0 -11 -9 -18t-22 -10.5 t-28 -5t-27 -1.5q-41 0 -60.5 21t-19.5 73v326h-226v-377q0 -13 -9 -22t-22 -9h-20q-13 0 -22 9t-9 22v377z"></glyph><glyph glyph-name="endash" unicode="–" d="M31 216q-13 0 -22 9t-9 22v14q0 13 9 22t22 9h438q13 0 22 -9t9 -22v-14q0 -13 -9 -22t-22 -9h-438v0z"></glyph><glyph glyph-name="emdash" unicode="—" d="M231 216q-13 0 -22 9t-9 22v14q0 13 9 22t22 9h538q13 0 22 -9t9 -22v-14q0 -13 -9 -22t-22 -9h-538v0z"></glyph><glyph glyph-name="quoteleft" unicode="‘" d="M119 444q-13 0 -22 9t-9 22v82q0 9 2 24t5.5 33.5t8.5 38.5t12 38q8 21 25 21h8q8 0 13.5 -7t2.5 -15q-10 -35 -13.5 -65.5t-3.5 -67.5h11q13 0 22 -9t9 -22v-51q0 -13 -9 -22t-22 -9h-40v0z"></glyph><glyph glyph-name="quoteright" unicode="’" d="M129 444q-8 0 -13.5 7t-2.5 15q10 35 13.5 65.5t3.5 67.5h-11q-13 0 -22 9t-9 22v51q0 13 9 22t22 9h40q13 0 22 -9t9 -22v-82q0 -9 -2 -24t-5.5 -33.5t-8.5 -38.5t-12 -38q-4 -10 -9 -15.5t-15 -5.5h-9v0z"></glyph><glyph glyph-name="quotesinglbase" unicode="‚" d="M88 82q0 13 9 22t22 9h40q13 0 22 -9t9 -22v-82q0 -9 -2 -24t-5.5 -33.5t-8.5 -38.5t-12 -38q-8 -21 -26 -21h-7q-8 0 -13.5 7t-2.5 15q10 35 13.5 65.5t3.5 67.5h-11q-13 0 -22 9t-9 22v51z"></glyph><glyph glyph-name="quotedblleft" unicode="“" d="M251 444q-13 0 -22 9t-9 22v82q0 9 2 24t5.5 33.5t8.5 38.5t12 38q4 10 9 15.5t15 5.5h9q8 0 13.5 -7t2.5 -15q-10 -35 -13.5 -65.5t-3.5 -67.5h11q13 0 22 -9t9 -22v-51q0 -13 -9 -22t-22 -9h-40zM98 444q-13 0 -22 9t-9 22v82q0 9 2 24t5.5 33.5t8.5 38.5t12 38 q4 10 9 15.5t15 5.5h9q8 0 13.5 -7t2.5 -15q-10 -35 -13.5 -65.5t-3.5 -67.5h11q13 0 22 -9t9 -22v-51q0 -13 -9 -22t-22 -9h-40z"></glyph><glyph glyph-name="quotedblright" unicode="”" d="M261 444q-8 0 -13.5 7t-2.5 15q10 35 13.5 65.5t3.5 67.5h-11q-13 0 -22 9t-9 22v51q0 13 9 22t22 9h40q13 0 22 -9t9 -22v-82q0 -9 -2 -24t-5.5 -33.5t-8.5 -38.5t-12 -38q-8 -21 -25 -21h-8zM108 444q-8 0 -13.5 7t-2.5 15q10 35 13.5 65.5t3.5 67.5h-11q-13 0 -22 9 t-9 22v51q0 13 9 22t22 9h40q13 0 22 -9t9 -22v-82q0 -9 -2 -24t-5.5 -33.5t-8.5 -38.5t-12 -38q-8 -21 -26 -21h-7z"></glyph><glyph glyph-name="quotedblbase" unicode="„" d="M220 82q0 13 9 22t22 9h40q13 0 22 -9t9 -22v-82q0 -9 -2 -24t-5.5 -33.5t-8.5 -38.5t-12 -38q-8 -21 -25 -21h-8q-8 0 -13.5 7t-2.5 15q10 35 13.5 65.5t3.5 67.5h-11q-13 0 -22 9t-9 22v51zM67 82q0 13 9 22t22 9h40q13 0 22 -9t9 -22v-82q0 -9 -2 -24t-5.5 -33.5 t-8.5 -38.5t-12 -38q-8 -21 -25 -21h-8q-8 0 -13.5 7t-2.5 15q10 35 13.5 65.5t3.5 67.5h-11q-13 0 -22 9t-9 22v51z"></glyph><glyph glyph-name="dagger" unicode="†" d="M237 408h-145q-13 0 -22 9t-9 22v14q0 13 9 22t22 9h145v197q0 13 9 22t22 9h20q13 0 22 -9t9 -22v-197h145q13 0 22 -9t9 -22v-14q0 -13 -9 -22t-22 -9h-145v-493q0 -13 -9 -22t-22 -9h-20q-13 0 -22 9t-9 22v493z"></glyph><glyph glyph-name="daggerdbl" unicode="‡" d="M92 95q-13 0 -22 9t-9 22v14q0 13 9 22t22 9h145v263h-145q-13 0 -22 9t-9 22v14q0 13 9 22t22 9h145v171q0 13 9 22t22 9h20q13 0 22 -9t9 -22v-171h145q13 0 22 -9t9 -22v-14q0 -13 -9 -22t-22 -9h-145v-263h145q13 0 22 -9t9 -22v-14q0 -13 -9 -22t-22 -9h-145v-180 q0 -13 -9 -22t-22 -9h-20q-13 0 -22 9t-9 22v180h-145v0z"></glyph><glyph glyph-name="bullet" unicode="•" d="M250 178q-37 0 -69.5 14t-56.5 38t-38 56.5t-14 69.5t14 69.5t38 56.5t56.5 38t69.5 14t69.5 -14t56.5 -38t38 -56.5t14 -69.5t-14 -69.5t-38 -56.5t-56.5 -38t-69.5 -14z"></glyph><glyph glyph-name="ellipsis" unicode="…" d="M782 82q0 13 9 22t22 9h40q13 0 22 -9t9 -22v-51q0 -13 -9 -22t-22 -9h-40q-13 0 -22 9t-9 22v51zM449 82q0 13 9 22t22 9h40q13 0 22 -9t9 -22v-51q0 -13 -9 -22t-22 -9h-40q-13 0 -22 9t-9 22v51zM116 82q0 13 9 22t22 9h40q13 0 22 -9t9 -22v-51q0 -13 -9 -22t-22 -9 h-40q-13 0 -22 9t-9 22v51z"></glyph><glyph glyph-name="perthousand" unicode="‰" d="M498 685q9 16 17 21.5t19 5.5h18q11 0 15.5 -9t-0.5 -18l-421 -690q-8 -12 -15.5 -19.5t-21.5 -7.5h-18q-11 0 -15 9t1 18zM158 346q-42 0 -70 16t-45.5 40.5t-24.5 54.5t-7 59q0 28 7 58.5t24.5 55t45.5 40.5t70 16t70 -16t45.5 -40.5t24.5 -55t7 -58.5q0 -29 -7 -59 t-24.5 -54.5t-45.5 -40.5t-70 -16zM158 410q20 0 33.5 9t22 24t12 34t3.5 39q0 19 -3.5 38t-12 34t-22 24.5t-33.5 9.5t-33.5 -9.5t-22 -24.5t-12 -34t-3.5 -38q0 -20 3.5 -39t12 -34t22 -24t33.5 -9zM695 164q0 28 7 58.5t24.5 55t45.5 40.5t70 16t70 -16t45.5 -40.5 t24.5 -55t7 -58.5q0 -29 -7 -59t-24.5 -54.5t-45.5 -40.5t-70 -16t-70 16t-45.5 40.5t-24.5 54.5t-7 59zM348 164q0 28 7 58.5t24.5 55t45.5 40.5t70 16t70 -16t45.5 -40.5t24.5 -55t7 -58.5q0 -29 -7 -59t-24.5 -54.5t-45.5 -40.5t-70 -16t-70 16t-45.5 40.5t-24.5 54.5 t-7 59zM771 164q0 -20 3.5 -39t12 -34t22 -24t33.5 -9t33.5 9t22 24t12 34t3.5 39q0 19 -3.5 38t-12 34t-22 24.5t-33.5 9.5t-33.5 -9.5t-22 -24.5t-12 -34t-3.5 -38zM424 164q0 -20 3.5 -39t12 -34t22 -24t33.5 -9t33.5 9t22 24t12 34t3.5 39q0 19 -3.5 38t-12 34t-22 24.5 t-33.5 9.5t-33.5 -9.5t-22 -24.5t-12 -34t-3.5 -38z"></glyph><glyph glyph-name="guilsinglleft" unicode="‹" d="M104 190q-16 13 -20 22.5t-4 28.5v26q0 10 1 17t3.5 12t7 10t12.5 12l88 77q4 3 9 3q6 0 10.5 -5.5t4.5 -18.5v-21q0 -20 -3.5 -29t-19.5 -23l-54 -47l54 -47q15 -14 19 -24t4 -28v-21q0 -14 -6 -18.5t-11 -4.5t-7 2l-88 77v0z"></glyph><glyph glyph-name="guilsinglright" unicode="›" d="M97 111q-5 0 -11 4.5t-6 18.5v21q0 18 4 28t19 24l54 47l-54 47q-16 14 -19.5 23t-3.5 29v21q0 13 4.5 18.5t10.5 5.5q4 0 9 -3l88 -77l12 -12t7.5 -10t3.5 -12t1 -17v-26q0 -19 -4 -28.5t-20 -22.5l-88 -77q-2 -2 -7 -2z"></glyph><glyph glyph-name="fraction" unicode="⁄" d="M248 684q9 16 17 22t19 6h23q14 0 15 -8t-10 -28l-393 -680q-8 -12 -15.5 -20t-21.5 -8h-23q-11 0 -14 6.5t5 21.5z"></glyph><glyph glyph-name="Euro" unicode="€" d="M47 245q-11 0 -18 7.5t-2 18.5l6 13q6 13 14.5 15.5t22.5 2.5h16q-1 8 -1 15.5v15.5v16.5t1 13.5h-39q-11 0 -17 8t-2 19l3 9q5 13 14.5 17t23.5 4h24q27 125 101 195q74 71 183 71q52 0 90 -12q15 -5 31 -12t33 -18q12 -7 16.5 -19t-0.5 -24l-7 -18q-7 -17 -22.5 -16.5 t-26.5 8.5q-57 39 -122 39q-66 0 -114 -52q-48 -53 -66 -142h260q11 0 18 -6t3 -17l-5 -14q-5 -13 -14.5 -16.5t-23.5 -3.5h-245q-1 -8 -1 -16v-16v-13.5t1 -15.5h223q11 0 17.5 -6.5t2.5 -17.5l-6 -16q-5 -13 -13.5 -15t-21.5 -2h-197q16 -95 65 -138q43 -40 125 -40 q41 0 66 8.5t48 25.5q17 13 28.5 5t11.5 -25v-27q0 -14 -7.5 -20.5t-20.5 -12.5q-57 -27 -126 -27q-62 0 -111.5 19t-85.5 53t-58.5 79.5t-31.5 99.5h-43v0z"></glyph><glyph glyph-name="afii61289" unicode="ℓ" d="M67 183q-7 10 -4 20t12 18l71 66v253q0 42 11 75.5t30.5 57t46 36t57.5 12.5q55 0 88.5 -36t33.5 -99q0 -75 -44.5 -152t-132.5 -162v-138q0 -24 6.5 -39.5t16.5 -25t22.5 -13t24.5 -3.5q32 0 65 21q13 8 20.5 8.5t15.5 -9.5l8 -11q7 -9 4 -19t-13 -17q-55 -40 -121 -40 q-63 0 -100.5 34t-37.5 100v91l-39 -37q-8 -8 -18 -9t-16 8zM236 350q51 60 77 118t26 112q0 35 -14 57.5t-35 22.5q-22 0 -38 -25.5t-16 -79.5v-205z"></glyph><glyph glyph-name="trademark" unicode="™" d="M452 681q0 13 9 22t22 9h39q20 0 27.5 -4.5t15.5 -24.5l114 -289l114 289q8 19 15.5 24t27.5 5h39q13 0 22 -9t9 -22v-350q0 -13 -9 -22t-22 -9h-2q-13 0 -22 9t-9 22v323h-2l-137 -338q-7 -16 -23 -16h-2q-8 0 -13.5 3t-9.5 13l-137 338h-2v-323q0 -13 -9 -22t-22 -9h-2 q-13 0 -22 9t-9 22v350zM230 300q-13 0 -22 9t-9 22v323h-101q-11 0 -19.5 8.5t-8.5 19.5v2q0 11 8.5 19.5t19.5 8.5h266q11 0 19.5 -8.5t8.5 -19.5v-2q0 -11 -8.5 -19.5t-19.5 -8.5h-101v-323q0 -13 -9 -22t-22 -9h-2z"></glyph><glyph glyph-name="uni2126" unicode="Ω" d="M46 51q0 13 9 22t22 9h157v57q-46 13 -81 39.5t-59 62.5t-36 79t-12 89q0 70 25.5 129t70 101.5t103.5 66.5t126 24t126.5 -23.5t103.5 -65.5t69.5 -101t25.5 -129q0 -48 -11.5 -91t-35 -78.5t-58.5 -62t-83 -40.5v-57h157q13 0 22 -9t9 -22v-20q0 -13 -9 -22t-22 -9 h-204q-13 0 -22 9t-9 22v121q0 20 7 28.5t23 13.5q66 23 100 79.5t34 130.5q0 53 -16.5 98.5t-46 79.5t-70.5 53t-90 19t-90 -19.5t-70.5 -53t-46 -79.5t-16.5 -99q0 -74 34 -130t100 -79q17 -6 23.5 -15t6.5 -27v-121q0 -13 -9 -22t-22 -9h-204q-13 0 -22 9t-9 22v20z"></glyph><glyph glyph-name="estimated" unicode="℮" d="M157 259v-181q59 -59 145 -59q63 0 109 28.5t84 91.5l35 -21q-23 -36 -46.5 -61.5t-51 -42t-59.5 -24t-71 -7.5q-59 0 -106.5 21.5t-81.5 59t-52 87.5t-18 108t18 108.5t52 87.5t81.5 58.5t106.5 21.5q58 0 105.5 -20.5t81.5 -57t53 -87t19 -111.5h-404zM448 295v145 q-63 60 -147 60t-144 -60v-145h291z"></glyph><glyph glyph-name="partialdiff" unicode="∂" d="M36 214q0 46 14.5 85.5t41.5 69t65.5 46.5t85.5 17q45 0 83 -18t70 -48l1 34q1 38 -6.5 81.5t-27 80t-51.5 60.5t-79 24q-26 0 -48 -8t-42 -22q-11 -7 -22.5 -8t-19.5 9l-15 18q-8 10 -6.5 22t11.5 20q32 21 65 32.5t74 11.5q76 0 126.5 -33t80.5 -84.5t42.5 -116 t12.5 -127.5q0 -61 -9.5 -126.5t-36 -120t-74.5 -90t-124 -35.5q-49 0 -88 17.5t-66.5 48.5t-42.5 72t-15 88zM128 210q0 -28 7.5 -55t22.5 -48t38 -34t55 -13q42 0 69 23t43.5 56.5t23 72.5t6.5 72q-26 32 -60 53.5t-77 21.5q-32 0 -56 -12.5t-40 -33t-24 -47.5t-8 -56z "></glyph><glyph glyph-name="uni2206" unicode="∆" d="M273 683q6 17 15.5 23t26.5 6h38q15 0 25.5 -6t17.5 -23l257 -642q6 -15 0 -28t-20 -13h-582q-12 0 -20.5 13.5t-3.5 27.5zM533 82l-199 513h-2l-194 -513h395z"></glyph><glyph glyph-name="product" unicode="∏" d="M65 755q0 13 9 22t22 9h538q13 0 22 -9t9 -22v-938q0 -13 -9 -22t-22 -9h-34q-13 0 -22 9t-9 22v882h-408v-882q0 -13 -9 -22t-22 -9h-34q-13 0 -22 9t-9 22v938z"></glyph><glyph glyph-name="summation" unicode="∑" d="M337 291l-281 393q-11 16 -14.5 26.5t-3.5 30.5v14q0 13 9 22t22 9h494q13 0 22 -9t9 -22v-25q0 -13 -9 -22t-22 -9h-398l269 -381q9 -14 9 -25q0 -14 -9 -26l-288 -394h429q13 0 22 -9t9 -22v-25q0 -13 -9 -22t-22 -9h-519q-13 0 -22 9t-9 22v28q0 14 5 23t13 20z"></glyph><glyph glyph-name="minus" unicode="−" d="M78 218q-13 0 -22 9t-9 22v8q0 13 9 22t22 9h444q13 0 22 -9t9 -22v-8q0 -13 -9 -22t-22 -9h-444v0z"></glyph><glyph glyph-name="uni2215" unicode="∕" d="M248 684q9 16 17 22t19 6h23q14 0 15 -8t-10 -28l-393 -680q-8 -12 -15.5 -20t-21.5 -8h-23q-11 0 -14 6.5t5 21.5z"></glyph><glyph glyph-name="uni2219" unicode="∙" d="M139 250q-25 0 -41 17t-16 43t16 42.5t41 16.5t41 -16.5t16 -42.5t-16 -43t-41 -17z"></glyph><glyph glyph-name="radical" unicode="√" d="M52 101q-11 -5 -23.5 -0.5t-17.5 15.5l-9 19q-5 11 -0.5 23.5t15.5 17.5l75 35q11 5 23.5 0.5t17.5 -15.5l127 -268l170 827q3 17 10.5 24t26.5 7h34q12 0 19.5 -9.5t5.5 -21.5l-199 -938q-3 -14 -13 -22.5t-24 -8.5h-29q-14 0 -25.5 5.5t-19.5 22.5l-143 297l-21 -10v0z "></glyph><glyph glyph-name="infinity" unicode="∞" d="M203 90q-36 0 -65.5 13t-50.5 35.5t-32.5 53t-11.5 65.5t11 65.5t31 53.5t49.5 36t65.5 13q31 0 58 -10t50.5 -26.5t44.5 -37t41 -42.5q19 21 40 42t44 37.5t49.5 27t57.5 10.5q36 0 65.5 -13t50.5 -35.5t32 -53t11 -65.5t-11 -66t-31.5 -54t-49.5 -36.5t-66 -13.5 q-30 0 -56.5 9.5t-50.5 25.5t-45 35.5t-40 40.5q-21 -21 -41.5 -41t-43 -35t-49 -24.5t-57.5 -9.5zM444 255q14 -15 30 -30t34 -27t37.5 -19.5t41.5 -7.5q38 0 58.5 24.5t20.5 60.5q0 38 -21 63t-60 25q-20 0 -39.5 -9t-37.5 -22t-34.5 -29t-29.5 -29zM203 172q19 0 39 8 t38.5 20t34.5 26.5t29 28.5q-13 13 -30 28t-35.5 28.5t-39 22.5t-40.5 9q-37 0 -57.5 -26t-20.5 -61q0 -38 22 -61t60 -23z"></glyph><glyph glyph-name="integral" unicode="∫" d="M449 721q0 -20 -13 -33t-33 -13q-17 0 -27 8.5t-16.5 19t-11 19t-11.5 8.5q-13 0 -18 -12.5t-6 -28t0.5 -31t1.5 -21.5q0 -20 0.5 -38t0.5 -38v-524q0 -37 -1.5 -80.5t-14 -81.5t-40 -63.5t-79.5 -25.5q-14 0 -29 4t-27.5 12t-21 19.5t-8.5 27.5q0 18 11 31.5t30 13.5 q18 0 27.5 -9t15 -19.5t9.5 -19.5t10 -9q12 0 16.5 11.5t6 26.5t0.5 29.5t-1 20.5v644q0 36 3 74.5t16 70t40.5 52t75.5 20.5q14 0 30.5 -3.5t30.5 -11.5t23.5 -20t9.5 -30z"></glyph><glyph glyph-name="approxequal" unicode="≈" d="M53 271q-10 0 -15.5 8t-3.5 18q3 17 8.5 34t16.5 34q39 66 109 66q22 0 42.5 -5t45.5 -13l51 -17q63 -21 87 -27q8 -2 21 -4t19 -2q24 0 39.5 14.5t23.5 35.5q7 20 23 20h20q11 0 16 -9t3 -20q-8 -37 -21 -62q-18 -33 -48 -51q-29 -17 -66 -17q-33 0 -70 11t-72.5 24 t-67 24t-53.5 11q-29 0 -42.5 -17t-20.5 -34q-4 -10 -12.5 -16t-19.5 -6h-13zM53 77q-10 0 -15.5 8t-3.5 18q3 17 8.5 34t16.5 34q39 66 109 66q22 0 42.5 -5t45.5 -13l51 -17q63 -21 87 -27q8 -2 21 -4t19 -2q24 0 39.5 14.5t23.5 35.5q7 20 23 20h20q11 0 16 -9t3 -20 q-8 -37 -21 -62q-18 -33 -48 -51q-29 -17 -66 -17q-33 0 -70 11t-72.5 24t-67 24t-53.5 11q-29 0 -42.5 -17t-20.5 -34q-4 -10 -12.5 -16t-19.5 -6h-13z"></glyph><glyph glyph-name="notequal" unicode="≠" d="M70 105q-13 0 -22 9t-9 22v27q0 13 9 22t22 9h145l62 122h-207q-13 0 -22 9t-9 22v27q0 13 9 22t22 9h253l64 123q6 11 18.5 15.5t23.5 -1.5l22 -12q11 -6 15.5 -18.5t-1.5 -23.5l-43 -83h101q13 0 22 -9t9 -22v-27q0 -13 -9 -22t-22 -9h-147l-63 -122h210q13 0 22 -9 t9 -22v-27q0 -13 -9 -22t-22 -9h-255l-63 -121q-6 -11 -19 -15.5t-24 1.5l-22 12q-11 5 -15 18t2 24l42 81h-99v0z"></glyph><glyph glyph-name="lessequal" unicode="≤" d="M69 260q-14 5 -22 16t-8 25v29q0 14 8 25t22 16l455 162q11 4 20.5 -3t9.5 -18v-42q0 -14 -8 -20.5t-22 -11.5l-362 -122l362 -118q14 -5 22 -12t8 -21v-41q0 -11 -9.5 -18t-20.5 -3zM39 26q0 13 9 22t22 9h453q13 0 22 -9t9 -22v-28q0 -13 -9 -22t-22 -9h-453 q-13 0 -22 9t-9 22v28z"></glyph><glyph glyph-name="greaterequal" unicode="≥" d="M69 103q-11 -4 -20.5 3t-9.5 18v41q0 14 8 21t22 12l362 118l-362 122q-14 5 -22 11.5t-8 20.5v42q0 11 9.5 18t20.5 3l455 -162q14 -5 22 -16t8 -25v-29q0 -14 -8 -25t-22 -16zM39 26q0 13 9 22t22 9h453q13 0 22 -9t9 -22v-28q0 -13 -9 -22t-22 -9h-453q-13 0 -22 9 t-9 22v28z"></glyph><glyph glyph-name="lozenge" unicode="◊" d="M92 327q-13 29 0 58l148 333q6 13 18 21t26 8h24q14 0 26 -8t18 -21l149 -333q13 -29 0 -58l-149 -333q-6 -13 -18 -21t-26 -8h-24q-14 0 -26 8t-18 21zM421 356l-125 300l-125 -300l125 -301z"></glyph><glyph glyph-name="uniE000" unicode="" d="M146 761q-16 0 -23 3.5t-21 19.5l-77 84q-8 10 -8 17q0 8 5 12.5t10 4.5h46q14 0 21.5 -4.5t18.5 -22.5l49 -78q6 -11 6 -18q0 -8 -5.5 -13t-13.5 -5h-8v0z"></glyph><glyph glyph-name="uniE002" unicode="" d="M104 761q-8 0 -13.5 5t-5.5 13q0 7 6 18l49 78q11 18 18.5 22.5t21.5 4.5h46q5 0 10 -4.5t5 -12.5q0 -7 -8 -17l-77 -84q-14 -16 -21 -19.5t-23 -3.5h-8v0z"></glyph><glyph glyph-name="uniE004" unicode="" d="M14 761q-6 0 -10.5 3.5t-4.5 10.5q0 8 7 18l58 83q11 16 19.5 21t29.5 5h30q21 0 29.5 -4.5t19.5 -20.5l59 -84q7 -11 7 -19q0 -13 -14 -13h-19q-21 0 -29 4t-20 22l-48 69l-48 -69q-6 -9 -10.5 -14.5t-8.5 -8t-9 -3t-13 -0.5h-25v0z"></glyph><glyph glyph-name="uniE006" unicode="" d="M113 761q-21 0 -29.5 5t-19.5 21l-58 83q-7 10 -7 18q0 7 4.5 10.5t10.5 3.5h25q8 0 13 -0.5t9 -3t8.5 -8t10.5 -14.5l48 -69l48 69q12 18 20 22t29 4h19q14 0 14 -13q0 -8 -7 -19l-59 -84q-11 -16 -19.5 -20.5t-29.5 -4.5h-30v0z"></glyph><glyph glyph-name="uniE008" unicode="" d="M109 537q-11 0 -17.5 6.5t-4.5 21.5l18 116q3 18 13 24.5t23 6.5h20q11 0 19 -6t3 -24l-33 -118q-5 -16 -14 -21.5t-21 -5.5h-6v0z"></glyph><glyph glyph-name="uniE009" unicode="" d="M-25 770q-8 0 -11 6t-1 15q8 37 33.5 62t67.5 25q20 0 39 -5.5t36 -12.5q17 -8 32.5 -13.5t26.5 -5.5q17 0 29.5 5.5t19.5 17.5q5 10 7.5 16t14.5 6h16q8 0 10 -7t0 -16q-9 -35 -33.5 -60.5t-65.5 -25.5q-15 0 -34.5 6t-39.5 14q-20 7 -38 12t-32 5q-11 0 -21 -6.5 t-16 -15.5q-7 -10 -11.5 -16t-16.5 -6h-12z"></glyph><glyph glyph-name="uniE00B" unicode="" d="M196 775q-13 0 -22 9t-9 22v38q0 13 9 22t22 9h26q13 0 22 -9t9 -22v-38q0 -13 -9 -22t-22 -9h-26zM36 775q-13 0 -22 9t-9 22v38q0 13 9 22t22 9h26q13 0 22 -9t9 -22v-38q0 -13 -9 -22t-22 -9h-26z"></glyph><glyph glyph-name="uniE00D" unicode="" d="M20 801q-11 0 -19.5 8.5t-8.5 19.5v2q0 11 8.5 19.5t19.5 8.5h218q11 0 19.5 -8.5t8.5 -19.5v-2q0 -11 -8.5 -19.5t-19.5 -8.5h-218v0z"></glyph><glyph glyph-name="uniE00F" unicode="" d="M136 767q-63 0 -101.5 25.5t-52.5 84.5q-2 10 1 17.5t13 7.5h18q10 0 14 -6.5t9 -17.5q11 -29 37.5 -41t58.5 -12q36 0 59 12t36 41q5 15 9 19.5t15 4.5h16q9 0 13 -7.5t1 -17.5q-13 -53 -50 -81.5t-96 -28.5z"></glyph><glyph glyph-name="uniE011" unicode="" d="M131 734q-21 0 -39.5 8t-32.5 22t-22 32.5t-8 39.5t8 39.5t22 32.5t32.5 22t39.5 8t39.5 -8t32.5 -22t22 -32.5t8 -39.5t-8 -39.5t-22 -32.5t-32.5 -22t-39.5 -8zM131 774q25 0 43.5 19t18.5 43t-18.5 43t-43.5 19t-43.5 -19t-18.5 -43t18.5 -43t43.5 -19z"></glyph><glyph glyph-name="uniE013" unicode="" d="M194 761q-8 0 -13.5 5t-5.5 13q0 7 6 18l49 78q11 18 18.5 22.5t21.5 4.5h46q5 0 10 -4.5t5 -12.5q0 -7 -8 -17l-77 -84q-14 -16 -21 -19.5t-23 -3.5h-8zM13 761q-8 0 -13.5 5t-5.5 13q0 7 6 18l49 78q11 18 18.5 22.5t21.5 4.5h46q5 0 10 -4.5t5 -12.5q0 -7 -8 -17 l-77 -84q-14 -16 -21 -19.5t-23 -3.5h-8z"></glyph><glyph glyph-name="uniE015" unicode="" d="M116 775q-13 0 -22 9t-9 22v38q0 13 9 22t22 9h26q13 0 22 -9t9 -22v-38q0 -13 -9 -22t-22 -9h-26v0z"></glyph><glyph glyph-name="uniE017" unicode="" d="M50 -93q4 14 13 22t23 8h26q23 0 23 -21q0 -6 -3 -13l-44 -97q-6 -13 -13.5 -21t-21.5 -8h-19q-9 0 -13.5 6t-4.5 14q0 4 2 10l32 100v0z"></glyph><glyph glyph-name="uniE01A" unicode="" d="M96 552q-23 0 -23 21q0 5 3 13l44 96q6 13 12.5 21.5t20.5 8.5h19q9 0 13 -6.5t4 -14.5q0 -4 -2 -10l-32 -99q-5 -14 -12 -22t-21 -8h-26v0z"></glyph><glyph glyph-name="uniF8FF" unicode="" d="M0 687q0 13 9 22t22 9h450q13 0 22 -9t9 -22v-656q0 -13 -9 -22t-22 -9h-450q-13 0 -22 9t-9 22v656zM462 50v617h-412v-617h412zM245 234q-13 0 -17.5 6.5t-4.5 15.5v3q2 50 13 73q7 13 18 27.5t28 31.5q16 15 26 26.5t15 21t7 18t2 17.5q0 36 -22.5 60.5t-53.5 24.5 q-27 0 -48 -16.5t-30 -54.5q-2 -10 -6.5 -16.5t-15.5 -4.5l-8 1q-14 2 -18.5 9t-2.5 17q11 59 46.5 87t85.5 28q54 0 89 -35.5t35 -95.5q0 -32 -12.5 -58.5t-50.5 -61.5q-37 -33 -43 -52q-4 -15 -6 -50q0 -9 -5.5 -15.5t-16.5 -6.5h-4zM222 157q0 15 8 21t19 6h2q11 0 19 -6 t8 -21v-13q0 -15 -8 -21t-19 -6h-2q-11 0 -19 6t-8 21v13z"></glyph></font>
</defs>
</svg>
